请选择 进入手机版 | 继续访问电脑版

YMLY-影迷乐园-特效字幕 蓝光原盘 1080P 高清动漫电影电视剧

 找回密码
 立即注册
搜索
查看: 204|回复: 36

[大陆] [百度][1992][怀旧剧场:小龙人][52集全][国语无字][MKV][20GB][576p.x264.50fps]

[复制链接]
  • TA的每日心情

    2022-1-23 09:00
  • 签到天数: 55 天

    [LV.5]常住居民I

    71

    主题

    321

    帖子

    2887

    积分

    稀有影迷

    Rank: 12Rank: 12Rank: 12

    积分
    2887
    发表于 4 天前 | 显示全部楼层 |阅读模式


    ◎译  名 小龙人
    ◎年  代 1992
    ◎产  地 中国大陆
    ◎类  别 儿童 / 奇幻
    ◎语  言 汉语普通话
    ◎上映日期 1992-06-01
    ◎IMDb链接 https://www.imdb.com/title/tt7686820/
    ◎豆瓣评分 8.3/10 (43933人评价)
    ◎豆瓣链接 https://movie.douban.com/subject/2085721/
    ◎集  数 52
    ◎片  长 28分钟
    ◎导  演 龚艺群 Yiqun Gong (id:1318067)
    ◎编  剧 诸葛怡 Yi Zhuge (id:1369090)
    ◎演  员 陈嘉男 Jianan Chen (id:1316237)
           陈晨 Chen Chen (id:1340256)
           柳田 Tian Liu (id:1338228)
           江以桢 Yizhen Jiang (id:1348805)
           任冶湘 Yexiang Ren (id:1274345)
           黄斐 Fei Huang (id:1373062)
           张炬 Ju Zhang (id:1318464)
           董智芝 Zhizhi Dong (id:1352864)
           罗犀子 Xizi Luo (id:1333855)
           宁文彤 Wentong Ning (id:1327677)
           于谦 Qian Yu (id:1274307)
           樊志起 Zhiqi Fan (id:1275688)
           常蓝天 Lantian Chang (id:1313314)
           尹诗 Shi Yin (id:1429206)
           关峡 Xia Guan (id:1378931)
           唐世云 Shiyun Tang (id:1404861)
           宁文彤 Wentong Ning (id:1327677)

    ◎简  介
      在古老的北京城某个普通的四合院内,住着三个调皮伶俐的小孩子:唯一的小女孩奇奇人小鬼大,虽然只有4岁半,还是玩布绒玩具的年龄,却整天想着做妈妈(柳田 饰);小胖子贝贝(陈晨 饰)贪吃贪玩,鬼点子不断,又爱逞强,经常闹出不少笑话;年纪最大的宝宝(江以桢 饰)稳重正直,大人上班的时候他负责照顾两个小弟弟小妹妹。                                    
                                    这天,三个小伙伴结伴去故宫游玩,他们的欢声笑语吵醒了大殿中正在沉睡的玉龙,随后玉龙化作小龙人(陈嘉男 饰)。在一个神秘声音的指引下,小龙人执意将奇奇认作妈妈。                                    
                                    从此,这四个小伙伴的奇异旅程便拉开了序幕……





    General
    Unique ID                      : 45034061181492554455124993682641253047 (0x21E13EA44F8189525A451A5091FBF2B7)
    Complete name                  : 小龙人.E07.TVRip.x264.mkv
    Format                         : Matroska
    Format version                 : Version 4
    File size                      : 496 MiB
    Duration                       : 28 min 39 s
    Overall bit rate               : 2 419 kb/s
    Encoded date                   : UTC 2022-05-13 00:20:49
    Writing application            : mkvmerge v48.0.0 ('Fortress Around Your Heart') 64-bit
    Writing library                : libebml v1.4.0 + libmatroska v1.6.0

    Video
    ID                             : 1
    Format                         : AVC
    Format/Info                    : Advanced Video Codec
    Format profile                 : [email protected]
    Format settings                : CABAC / 5 Ref Frames
    Format settings, CABAC         : Yes
    Format settings, Reference fra : 5 frames
    Codec ID                       : V_MPEG4/ISO/AVC
    Duration                       : 28 min 39 s
    Bit rate                       : 2 160 kb/s
    Width                          : 720 pixels
    Height                         : 576 pixels
    Display aspect ratio           : 4:3
    Frame rate mode                : Constant
    Frame rate                     : 50.000 FPS
    Color space                    : YUV
    Chroma subsampling             : 4:2:0
    Bit depth                      : 8 bits
    Scan type                      : Progressive
    Bits/(Pixel*Frame)             : 0.104
    Stream size                    : 443 MiB (89%)
    Writing library                : x264 core 164 r3085 0bb85e8
    Encoding settings              : cabac=1 / ref=5 / deblock=1:-1:-1 / analyse=0x3:0x113 / me=hex / subme=8 / psy=1 / psy_rd=1.00:0.15 / mixed_ref=1 / me_range=16 / chroma_me=1 / trellis=2 / 8x8dct=1 / cqm=0 / deadzone=21,11 / fast_pskip=1 / chroma_qp_offset=-3 / threads=18 / lookahead_threads=3 / sliced_threads=0 / nr=0 / decimate=1 / interlaced=0 / bluray_compat=0 / constrained_intra=0 / bframes=3 / b_pyramid=2 / b_adapt=1 / b_bias=0 / direct=3 / weightb=1 / open_gop=0 / weightp=2 / keyint=250 / keyint_min=25 / scenecut=40 / intra_refresh=0 / rc_lookahead=50 / rc=crf / mbtree=1 / crf=22.0 / qcomp=0.60 / qpmin=0 / qpmax=69 / qpstep=4 / ip_ratio=1.40 / aq=1:1.00
    Language                       : Chinese
    Default                        : Yes
    Forced                         : No

    Audio
    ID                             : 2
    Format                         : MPEG Audio
    Format version                 : Version 1
    Format profile                 : Layer 2
    Codec ID                       : A_MPEG/L2
    Codec ID/Hint                  : MP2
    Duration                       : 28 min 39 s
    Bit rate mode                  : Constant
    Bit rate                       : 256 kb/s
    Channel(s)                     : 2 channels
    Sampling rate                  : 48.0 kHz
    Frame rate                     : 41.664 FPS (1152 SPF)
    Compression mode               : Lossy
    Stream size                    : 52.5 MiB (11%)
    Language                       : Chinese
    Default                        : Yes
    Forced                         : No


    购买主题 已有 8 人购买  本主题需向作者支付 50 大洋 才能浏览
    回复

    使用道具 举报

  • TA的每日心情
    开心
    昨天 00:02
  • 签到天数: 169 天

    [LV.7]常住居民III

    0

    主题

    1301

    帖子

    69

    积分

    初级影迷

    Rank: 2

    积分
    69
    发表于 4 天前 | 显示全部楼层
    放开我发WF发F GR G ;G 3 G G
    啊啊啊啊
    回复

    使用道具 举报

  • TA的每日心情
    开心
    10 小时前
  • 签到天数: 477 天

    [LV.9]以坛为家II

    0

    主题

    532

    帖子

    166

    积分

    高级影迷

    Rank: 4

    积分
    166
    发表于 4 天前 | 显示全部楼层
    谢谢分享小龙人
    回复

    使用道具 举报

  • TA的每日心情
    开心
    22 小时前
  • 签到天数: 32 天

    [LV.5]常住居民I

    0

    主题

    367

    帖子

    33

    积分

    初级影迷

    Rank: 2

    积分
    33
    发表于 4 天前 | 显示全部楼层
    感谢楼主分享资源
    回复

    使用道具 举报

  • TA的每日心情
    无聊
    昨天 00:30
  • 签到天数: 382 天

    [LV.9]以坛为家II

    16

    主题

    1116

    帖子

    90

    积分

    中级影迷

    Rank: 3Rank: 3

    积分
    90
    发表于 4 天前 | 显示全部楼层
    我头上有犄角、我身后有尾巴,谁也不知道,我有多少秘密

    这个歌词现在我还能记住
    回复

    使用道具 举报

  • TA的每日心情
    开心
    4 小时前
  • 签到天数: 161 天

    [LV.7]常住居民III

    1

    主题

    3422

    帖子

    223

    积分

    高级影迷

    Rank: 4

    积分
    223
    发表于 4 天前 | 显示全部楼层
    感谢分享好资源
    回复

    使用道具 举报

  • TA的每日心情
    郁闷
    2022-2-28 20:25
  • 签到天数: 1 天

    [LV.1]初来乍到

    0

    主题

    993

    帖子

    155

    积分

    高级影迷

    Rank: 4

    积分
    155

    开坛功臣

    发表于 4 天前 | 显示全部楼层

    谢谢分享小龙人
    回复

    使用道具 举报

  • TA的每日心情
    开心
    14 小时前
  • 签到天数: 356 天

    [LV.8]以坛为家I

    0

    主题

    4370

    帖子

    667

    积分

    专业影迷

    Rank: 8Rank: 8

    积分
    667
    发表于 4 天前 | 显示全部楼层
    感谢分享好资源
    回复

    使用道具 举报

  • TA的每日心情
    郁闷
    10 小时前
  • 签到天数: 338 天

    [LV.8]以坛为家I

    4

    主题

    735

    帖子

    814

    积分

    资深影迷

    Rank: 10Rank: 10Rank: 10

    积分
    814
    发表于 4 天前 | 显示全部楼层
    看到这种片子的各位,估计都是四十上下了。
    回复

    使用道具 举报

  • TA的每日心情
    奋斗
    22 小时前
  • 签到天数: 538 天

    [LV.9]以坛为家II

    34

    主题

    4917

    帖子

    2039

    积分

    稀有影迷

    Rank: 12Rank: 12Rank: 12

    积分
    2039
    发表于 4 天前 | 显示全部楼层
    感谢楼主分享
    回复

    使用道具 举报

    您需要登录后才可以回帖 登录 | 立即注册

    本版积分规则

    QQ|Archiver|手机版|小黑屋|影迷乐园

    GMT+8, 2022-5-17 22:11 , Processed in 0.089877 second(s), 27 queries .

    Powered by Discuz! X3.4

    Copyright © 2001-2020, Tencent Cloud.

    快速回复 返回顶部 返回列表