请选择 进入手机版 | 继续访问电脑版

YMLY-影迷乐园-特效字幕 蓝光原盘 1080P 高清动漫电影电视剧

 找回密码
 立即注册
搜索
查看: 153|回复: 22

[大陆] [115][2001][1080P][60帧][笑傲江湖.张纪中版][无台标无水印][国语内封中字][李亚鹏.许晴][40集全][MP4][43.3GB][xiao.ao.jiang.hu.2001.1080p.WEB-DL.H264.60FPS.AAC-YMLY]

[复制链接]
  • TA的每日心情

    2020-8-15 07:51
  • 签到天数: 139 天

    [LV.7]常住居民III

    173

    主题

    1254

    帖子

    8818

    积分

    ★★发布员★★

    积分
    8818

    最佳新人影迷男神富甲一方土豪勋章小土豪勋章

    发表于 3 天前 | 显示全部楼层 |阅读模式


    ◎片  名 笑傲江湖
    ◎年  代 2001
    ◎产  地 中国大陆
    ◎类  别 剧情/爱情/武侠
    ◎语  言 汉语普通话
    ◎上映日期 2001-03-26(中国大陆)
    ◎IMDb评分  8/10 from 505 users
    ◎IMDb链接  https://www.imdb.com/title/tt1392724/
    ◎豆瓣评分 8.4/10 from 67717 users
    ◎豆瓣链接 https://douban.com/subject/2155290/
    ◎集  数 40
    ◎片  长 46分钟
    ◎导  演 黄健中 Jian-zhong Huang / 元彬 Bun Yuen
    ◎编  剧 金庸 Louis Cha / 周锴 Kai Zhou / 陈育新 Yuxin Chen
    ◎主  演 李亚鹏 Yapeng Li
           许晴 Qing Xu
           苗乙乙 Yiyi Miao
           巍子 Weizi
           陈丽峰 Lifeng Chen
           李解 Jie Li
           吕晓禾 Xiaohe Lü
           涂们 Tumen
           刘冬 Dong Liu
           巴音 Bayaneruul
           李勤勤 Qinqin Li
           臧金生 Jinsheng Zang
           杨昆 Kun Yang
           封锡钧 Xijun Feng
           杨念生 Niansheng Yang
           彭登怀 Denghuai Peng
           于承惠 Chenghui Yu
           黄宗洛 Zongluo Huang
           李幸芷 Jewel Lee
           孙海英 Haiying Sun
           修宗迪 Zongdi Xiu
           丛志军 Zhijun Cong
           刘仲元 Zhongyuan Liu
           张衡平 Hengping Zhang
           茅威涛 Weitao Mao
           牛宝军 Baojun Niu
           王振荣 Zhenrong Wang
           孙存碟 Cundie Sun
           李晓波 Xiaobo Li
           许敬义 Jingyi Xu
           马岩 Yan Ma
           王鑫峰 Xinfeng Wang
           巨兴茂 Xingmao Ju
           巩立峰 Lifeng Gong
           赵福余 Fuyu Zhao
           张纪中 Jizhong Zhang
           王文升 Wensheng Wang
           齐忠坤 Zhongkun Qi
           韩一朋 Yipeng Han
           李旗山 Qishan Li
           李菁菁 Jingjing Li
           袁芳 Fang Yuan
           牛星丽 Xingli Niu
           李中华 Zhonghua Li
           夏宗学 Zong-xue Xia
           乌兰宝音 Baoyin Wulan
           于鸿洲 Hongzhou Yu
           柏杉 Shan Bai
           李振平 Zhenping Li
           赵箭 Jian Zhao
           丁翠华 Cuihua Ding
           张成武 Chengwu Zhang
           李义华 Yihua Li
           魏峰 Feng Wei
           韩福利 Fuli Han
           侯长荣 Changrong Hou
           韩木墩 Mudun Han
           林峰 Feng Lin
           曲敬国 Jingguo Qu
           纪元 Yuan Ji
           张伸 Shen Zhang

    ◎简  介

      
      华山派大弟子令狐冲(李亚鹏 饰)受师父岳不群(巍子 饰)之命,与青梅竹马的师妹岳灵珊(苗乙乙 饰)乔装成酒栈伙计,伏于武夷山脚。途中令狐冲巧遇魔教长老曲洋(丛志军 饰),二人惺惺相惜,师兄妹两人还救下了被青城派寻仇的福威镖局少镖头林平之(李解 饰)。林平之被带回华山后岳灵珊对其芳心暗许,这让令狐冲心里不是滋味,加上他身受重伤可能不久于人世,于是决定出走。行走江湖的途中他遇到了魔教圣姑任盈盈(许晴 饰),任盈盈喜欢他,不惜动用人力物力下为其疗伤。因缘际会,令狐冲得以认识了风清扬(于承惠 饰)、向问天(巴音 饰)、蓝凤凰(李菲 饰)、定逸师太(李勤勤 饰)等许多高手,学到了更高深的功夫还认识了美丽单纯的仪琳(陈丽峰)小师妹。他与任盈盈一起战胜了企图吞并五岳派的嵩山派掌门人左冷禅(涂门 饰),救出了被东方不败(茅威涛 饰)囚禁的盈盈之父任我行(吕晓禾 饰)。可是事情并未朝着想象的方向发展,一个东方不败死了新的东方不败又将诞生。
      
    1. General
    2. Unique ID                      : 198945262093423716865128188194367018298 (0x95AB76B8B610DDF4A17F8BBBDD09153A)
    3. Complete name                  : D:\FDownload\01.mkv
    4. Format                         : Matroska
    5. Format version                 : Version 4
    6. File size                      : 1.16 GiB
    7. Duration                       : 47 min 13 s
    8. Overall bit rate               : 3 516 kb/s
    9. Encoded date                   : UTC 2022-05-14 09:07:47
    10. Writing application            : mkvmerge v16.0.0 ('Protest') 64-bit
    11. Writing library                : libebml v1.3.5 + libmatroska v1.4.8

    12. Video
    13. ID                             : 1
    14. Format                         : AVC
    15. Format/Info                    : Advanced Video Codec
    16. Format profile                 : [email protected]
    17. Format settings                : CABAC / 6 Ref Frames
    18. Format settings, CABAC         : Yes
    19. Format settings, Reference fra : 6 frames
    20. Codec ID                       : V_MPEG4/ISO/AVC
    21. Duration                       : 47 min 13 s
    22. Bit rate                       : 3 320 kb/s
    23. Width                          : 1 920 pixels
    24. Height                         : 1 080 pixels
    25. Display aspect ratio           : 16:10
    26. Frame rate mode                : Constant
    27. Frame rate                     : 59.940 (59940/1000) FPS
    28. Color space                    : YUV
    29. Chroma subsampling             : 4:2:0
    30. Bit depth                      : 8 bits
    31. Scan type                      : Progressive
    32. Bits/(Pixel*Frame)             : 0.027
    33. Stream size                    : 1.09 GiB (94%)
    34. Default                        : Yes
    35. Forced                         : No
    36. Color range                    : Limited
    37. Color primaries                : BT.709
    38. Transfer characteristics       : BT.709
    39. Matrix coefficients            : BT.709

    40. Audio
    41. ID                             : 2
    42. Format                         : AAC LC
    43. Format/Info                    : Advanced Audio Codec Low Complexity
    44. Codec ID                       : A_AAC-2
    45. Duration                       : 47 min 13 s
    46. Bit rate                       : 192 kb/s
    47. Channel(s)                     : 2 channels
    48. Channel layout                 : L R
    49. Sampling rate                  : 48.0 kHz
    50. Frame rate                     : 46.875 FPS (1024 SPF)
    51. Compression mode               : Lossy
    52. Stream size                    : 64.8 MiB (5%)
    53. Title                          : 国语
    54. Language                       : Chinese
    55. Default                        : Yes
    56. Forced                         : No

    57. Text
    58. ID                             : 3
    59. Format                         : ASS
    60. Codec ID                       : S_TEXT/ASS
    61. Codec ID/Info                  : Advanced Sub Station Alpha
    62. Duration                       : 40 min 47 s
    63. Bit rate                       : 88 b/s
    64. Count of elements              : 618
    65. Compression mode               : Lossless
    66. Stream size                    : 26.5 KiB (0%)
    67. Title                          : 简体中文
    68. Language                       : Chinese
    69. Default                        : Yes
    70. Forced                         : No

    复制代码







    购买主题 已有 8 人购买  本主题需向作者支付 200 大洋 才能浏览
    回复

    使用道具 举报

  • TA的每日心情
    无聊
    昨天 00:32
  • 签到天数: 553 天

    [LV.9]以坛为家II

    1

    主题

    935

    帖子

    90

    积分

    中级影迷

    Rank: 3Rank: 3

    积分
    90
    发表于 3 天前 | 显示全部楼层
    这个不错👌👌👌
    回复

    使用道具 举报

    该用户从未签到

    0

    主题

    51

    帖子

    132

    积分

    中级影迷

    Rank: 3Rank: 3

    积分
    132
    发表于 3 天前 | 显示全部楼层
    趁许晴被和谐前赶紧下!
    回复

    使用道具 举报

  • TA的每日心情
    开心
    昨天 20:29
  • 签到天数: 403 天

    [LV.9]以坛为家II

    4

    主题

    3366

    帖子

    1121

    积分

    资深影迷

    Rank: 10Rank: 10Rank: 10

    积分
    1121
    发表于 3 天前 来自手机 | 显示全部楼层
    感谢分享哈
    回复

    使用道具 举报

  • TA的每日心情
    开心
    3 小时前
  • 签到天数: 161 天

    [LV.7]常住居民III

    1

    主题

    3422

    帖子

    223

    积分

    高级影迷

    Rank: 4

    积分
    223
    发表于 3 天前 | 显示全部楼层
    好电影推荐一下谢谢
    回复

    使用道具 举报

  • TA的每日心情
    开心
    7 小时前
  • 签到天数: 294 天

    [LV.8]以坛为家I

    0

    主题

    2390

    帖子

    121

    积分

    中级影迷

    Rank: 3Rank: 3

    积分
    121
    发表于 3 天前 | 显示全部楼层
    感谢分享哈
    回复

    使用道具 举报

  • TA的每日心情
    开心
    21 小时前
  • 签到天数: 98 天

    [LV.6]常住居民II

    2

    主题

    864

    帖子

    46

    积分

    初级影迷

    Rank: 2

    积分
    46
    发表于 3 天前 | 显示全部楼层
    感谢分享哈
    回复

    使用道具 举报

  • TA的每日心情
    开心
    7 小时前
  • 签到天数: 280 天

    [LV.8]以坛为家I

    0

    主题

    2404

    帖子

    146

    积分

    中级影迷

    Rank: 3Rank: 3

    积分
    146
    发表于 3 天前 | 显示全部楼层
    感谢分享哈
    回复

    使用道具 举报

  • TA的每日心情
    开心
    2020-11-21 00:55
  • 签到天数: 8 天

    [LV.3]偶尔看看II

    1

    主题

    643

    帖子

    121

    积分

    中级影迷

    Rank: 3Rank: 3

    积分
    121
    发表于 3 天前 | 显示全部楼层
    感谢分享!
    回复

    使用道具 举报

  • TA的每日心情
    慵懒
    21 小时前
  • 签到天数: 677 天

    [LV.9]以坛为家II

    5

    主题

    5293

    帖子

    320

    积分

    超级影迷

    Rank: 6Rank: 6

    积分
    320
    发表于 前天 01:21 | 显示全部楼层
    谢谢老大经典资源。
    回复

    使用道具 举报

    您需要登录后才可以回帖 登录 | 立即注册

    本版积分规则

    QQ|Archiver|手机版|小黑屋|影迷乐园

    GMT+8, 2022-5-17 21:24 , Processed in 0.106213 second(s), 27 queries .

    Powered by Discuz! X3.4

    Copyright © 2001-2020, Tencent Cloud.

    快速回复 返回顶部 返回列表