请选择 进入手机版 | 继续访问电脑版

YMLY-影迷乐园-特效字幕 蓝光原盘 1080P 高清动漫电影电视剧

 找回密码
 立即注册
搜索
查看: 131|回复: 20

[日本] [115+百度][1967][1080P][赛文奥特曼][国日双语.简中字幕][MKV][47.67GB][Ultra.Seven.1967.BluRay.X264.3Audio.1080p-52KHD]

[复制链接]
  • TA的每日心情
    奋斗
    2020-2-21 00:36
  • 签到天数: 656 天

    [LV.9]以坛为家II

    1万

    主题

    1万

    帖子

    28万

    积分

    超级版主

    与齐同行,是最初的梦想,也是一辈子的执着~

    Rank: 16Rank: 16Rank: 16Rank: 16

    积分
    286617

    内测勋章最佳新人十二生肖之猴VIP包月勋章影迷男神小土豪勋章土豪勋章富甲一方精华勋章金话筒主题达人灌水之王

    发表于 3 天前 | 显示全部楼层 |阅读模式
    下载说明:

    百度云网盘分享极其不稳定,如有链接失效,请第一时间站内短消息通知我,上线后会第一时间补发!


    ----转载自52KHD,感谢压制和原发布人员,特此鸣谢!----


    制作说明:

    国语材料提供:大师兄

    音轨剪辑,视频压制:Li287122464

    别想了,第12集不会有高清版,也不会有国配。原因请自行百度。
    注:上译国语有删减,观看时建议手动选择音轨京译国语。本人合成时习惯默认为上译国语的。




    ◎译  名 赛文奥特曼/Ultra Seven/Urutora Sebun/咸蛋超人七号/奥特赛文/超人七星侠(港)
    ◎片  名 ウルトラセブン
    ◎年  代 1967
    ◎产  地 日本
    ◎类  别 剧情 / 动作 / 科幻
    ◎语  言 日语
    ◎上映日期 1967-10-01
    ◎IMDb评分  8.1/10 from 385 users
    ◎IMDb链接  https://www.imdb.com/title/tt0184169/
    ◎豆瓣评分 9.1/10 from 10685 users
    ◎豆瓣链接 https://movie.douban.com/subject/2264554/
    ◎集  数 49
    ◎片  长 30分钟
    ◎导  演 圆谷英二 Eiji Tsuburaya / 满田穧 Kazuho Mitsuta / 饭岛敏宏 Toshihiro lijima / 实相寺昭雄 Akio Jissoji / 圆谷一 Hajime Tsuburaya
    ◎编  剧 金城哲夫 Tetsuo Kinjô / 山浦弘靖 Yamaura Hiroyasu / 藤川桂介 Keisuke Fujikawa / 市川森一 Shinichi Ichikawa / 上原正三 Shozo Uehara / 若槻文三 Bunzô Wakatsuki / 佐佐木守 Mamoru Sasaki
    ◎主  演 森次晃嗣 Kôji Moritsugu
           中山昭二 Shôji Nakayama
           菱美百合子 Yuriko Hishimi
           阿知波信介 Nobusuke Achiba
           古谷敏 Bin Furuya
           琳达·李·哈迪斯蒂 Linda Lee Hardisty
           高桥玲子 Reiko Takahashi
           近藤征矢 Kondō Soya
           水上竜子 Minakami Ryûko
           平田昭彦 Akihiko Hirata
           松坂庆子 Keiko Matsuzaka
           嘉手纳清美 Kadena Kiyomi
           松田重治 Matsuda Shigeharu
           渡边文雄 Fumio Watanabe
           石坂浩二 Kôji Ishizaka
           樱井浩子 Hiroko Sakurai
           佐原健二 Kenji Sahara
           山田康雄 Yasuo Yamada
           奥村公延 Kôen Okumura
           Akira Yamaguchi Akira Yamaguchi
           毒蝮三太夫 Sandayuu Dokumamushi
           Shinsuke Achiha Shinsuke Achiha
           高野浩幸 Hiroyuki Takano
           山本耕一 Kôichi Yamamoto
           藤田进 Susumu Fujita

    ◎简  介

      内容为描写自宇宙侵略者手中守护地球的“超级警备队”(ウルトラ警备队),以及协助地球人的英雄“超人七号”的活跃故事。
      本片是以ULTRA系列(空想特摄系列)第4部作品名义(第3作为东映制作的《CAPTAIN ULTRA》)企划的作品。与《超人力霸王》一样采用了“为人类和平而战的特殊团队,与协助他们的巨大超人英雄”的模式。然而世界观与《超异象之谜》、《超人力霸王》两作相比却是完全丕变。
      首先是加入了地球因为游星间的侵略战争,而成为许多异星人攻击目标的世界观。并因此导入了“地球防卫军”这样的世界规模军事机构组织,剧中也出现许多与敌对宇宙人进行谍报战描写,使作品中呈现出强烈的军事色彩,特效场景中的超兵器出动过程亦是如此。这些设定也将播映当时的冷战时代背景,特别是越战给明显的反映出来。另外各集故事中也相当重视戏剧性,像抛出“地球人本身,过去是否为侵略地球的侵略者后裔?”的疑问,让主角的正义信念自根底产生动摇的第42集“侬马特的使者”,以及借由在地球防卫军新兵器实验下成为牺牲品的宇宙怪獣悲剧,来批判军备扩张竞赛的第26集“超兵器R1号”等,都成为超越娱乐作品范畴,命题沉重的作品。宇宙人与怪獣也由于“侵略地球的侵略者与其生物兵器”的特色强烈,以致单独的角色个性变得淡化,剧中甚至还有连名称都没出现的例子。这点与重视怪兽的特色,并在片头画面中公布怪兽名称的《超人力霸王》相比,也有明显差异。
      另一方面,拥有比超人力霸王更多样化超能力的主角‧超人七号的英雄特色,以及从硬派到幽默等多种变化风格的战斗场面演出、超级警备队爽快的活跃等,充分追求了针对主要目标儿童观众群的娱乐性,且确保本片在阖家观赏取向的超人英雄剧集中,站稳了一线作品的地位。
      根据为全剧催生的主要导演之一满田[禾斉]表示,“包括强烈的SF色彩与提高观众年龄层,在各方面都刻意突显与《超人力霸王》之间的差异”[1]。
      在本片的制作方面,基于从制作进度恶化,导致不得不落幕的《超人力霸王》所得到的教训,对于预算等状况进行严格控管,制作体制也重新强化。包括摄影现场的合理化、特效场景的建档化,利用既有日用品制作道具等多方面尝试当中,在剧情方面对于像怪兽与非人类型异星人不出现的故事等,也都下足了功夫。然而一方面吸引许多观众的娱乐性已经不再,加上后期节目收视率随着怪兽热潮衰退而呈现下降趋势,《超人七号》也终究得为自《超异象之谜》、《超人力霸王》以来的ULTRA系列划下休止符。
      不过,在没有出现重大路线变更且脉络一贯当中,将故事导向壮大格局的完结篇受到高度评价,之后的多次重播之下,前述所提及的本片魅力也开拓出全新的影迷群。因此将本片与《超人力霸王》视为超人系列代表性人气作品的观点开始广获认知,对于第2期超人系列的诞生,与70年代末期日本特摄英雄的重新评价都有很大的贡献。
      至今本片仍在系列中拥有极高人气(包括演职员都表示过相关看法,认为本片为超人系列的最高杰作),将过往圆谷作品DVD化的“DIGITAL ULTRA SERIES”(デジタルウルトラシリーズ)中,本片更是凌驾在《超异象之谜》与《超人力霸王》之前成为首波主打作品,在首播结束40年之后的今天,卫星频道与无线频道仍然频繁重播。另外,本片也制作了承继世界观的续篇性质OV与TV特别篇作品。

    1. General
    2. Unique ID                      : 245453685202764731249367998880883014540 (0xB8A8A904C83CF48EBFA701D39BE9FB8C)
    3. 赛文奥特曼\Ultra.Seven.EP18.1967.BluRay.X264.3Audio.1080p-52KHD.mkv
    4. Format                         : Matroska
    5. Format version                 : Version 4
    6. File size                      : 937 MiB
    7. Duration                       : 25 min 18 s
    8. Overall bit rate               : 5 177 kb/s
    9. Movie name                     : 52KHD
    10. Encoded date                   : UTC 2015-10-22 23:16:03
    11. Writing application            : mkvmerge v7.7.0 ('Six Voices') 32bit built on Feb 28 2015 23:23:00
    12. Writing library                : libebml v1.3.1 + libmatroska v1.4.2
    13. Attachments                    : 52logo.ttf

    14. Video
    15. ID                             : 1
    16. Format                         : AVC
    17. Format/Info                    : Advanced Video Codec
    18. Format profile                 : High [email protected]
    19. Format settings                : CABAC / 10 Ref Frames
    20. Format settings, CABAC         : Yes
    21. Format settings, Reference fra : 10 frames
    22. Codec ID                       : V_MPEG4/ISO/AVC
    23. Duration                       : 25 min 18 s
    24. Bit rate                       : 4 606 kb/s
    25. Width                          : 1 440 pixels
    26. Height                         : 1 080 pixels
    27. Display aspect ratio           : 4:3
    28. Frame rate mode                : Constant
    29. Frame rate                     : 23.976 (24000/1001) FPS
    30. Color space                    : YUV
    31. Chroma subsampling             : 4:2:0
    32. Bit depth                      : 10 bits
    33. Scan type                      : Progressive
    34. Bits/(Pixel*Frame)             : 0.124
    35. Stream size                    : 834 MiB (89%)
    36. Writing library                : x264 core 146 r2538 121396c
    37. Encoding settings              : cabac=1 / ref=10 / deblock=1:-1:-1 / analyse=0x3:0x133 / me=umh / subme=10 / psy=1 / psy_rd=0.80:0.00 / mixed_ref=1 / me_range=16 / chroma_me=1 / trellis=2 / 8x8dct=1 / cqm=0 / deadzone=21,11 / fast_pskip=1 / chroma_qp_offset=-2 / threads=12 / lookahead_threads=3 / sliced_threads=0 / nr=0 / decimate=1 / interlaced=0 / bluray_compat=0 / constrained_intra=0 / bframes=16 / b_pyramid=2 / b_adapt=2 / b_bias=0 / direct=3 / weightb=1 / open_gop=0 / weightp=2 / keyint=240 / keyint_min=23 / scenecut=40 / intra_refresh=0 / rc_lookahead=60 / rc=crf / mbtree=1 / crf=20.0 / qcomp=0.80 / qpmin=10 / qpmax=51 / qpstep=4 / ip_ratio=1.40 / aq=1:1.00
    38. Default                        : Yes
    39. Forced                         : No

    40. Audio #1
    41. ID                             : 2
    42. Format                         : AAC LC
    43. Format/Info                    : Advanced Audio Codec Low Complexity
    44. Codec ID                       : A_AAC-2
    45. Duration                       : 25 min 18 s
    46. Bit rate                       : 184 kb/s
    47. Channel(s)                     : 2 channels
    48. Channel layout                 : L R
    49. Sampling rate                  : 48.0 kHz
    50. Frame rate                     : 46.875 FPS (1024 SPF)
    51. Compression mode               : Lossy
    52. Delay relative to video        : 9 ms
    53. Stream size                    : 33.2 MiB (4%)
    54. Title                          : 上译国语
    55. Language                       : Chinese
    56. Default                        : Yes
    57. Forced                         : No

    58. Audio #2
    59. ID                             : 3
    60. Format                         : AAC LC
    61. Format/Info                    : Advanced Audio Codec Low Complexity
    62. Codec ID                       : A_AAC-2
    63. Duration                       : 25 min 18 s
    64. Bit rate                       : 192 kb/s
    65. Channel(s)                     : 2 channels
    66. Channel layout                 : L R
    67. Sampling rate                  : 48.0 kHz
    68. Frame rate                     : 46.875 FPS (1024 SPF)
    69. Compression mode               : Lossy
    70. Delay relative to video        : 9 ms
    71. Stream size                    : 34.7 MiB (4%)
    72. Title                          : 京译国语
    73. Language                       : Chinese
    74. Default                        : No
    75. Forced                         : No

    76. Audio #3
    77. ID                             : 4
    78. Format                         : AAC LC
    79. Format/Info                    : Advanced Audio Codec Low Complexity
    80. Codec ID                       : A_AAC-2
    81. Duration                       : 25 min 18 s
    82. Bit rate                       : 192 kb/s
    83. Channel(s)                     : 2 channels
    84. Channel layout                 : L R
    85. Sampling rate                  : 48.0 kHz
    86. Frame rate                     : 46.875 FPS (1024 SPF)
    87. Compression mode               : Lossy
    88. Delay relative to video        : 9 ms
    89. Stream size                    : 34.7 MiB (4%)
    90. Title                          : 日语
    91. Language                       : Japanese
    92. Default                        : No
    93. Forced                         : No

    94. Text
    95. ID                             : 5
    96. Format                         : ASS
    97. Codec ID                       : S_TEXT/ASS
    98. Codec ID/Info                  : Advanced Sub Station Alpha
    99. Duration                       : 25 min 9 s
    100. Bit rate                       : 87 b/s
    101. Count of elements              : 284
    102. Compression mode               : Lossless
    103. Stream size                    : 16.1 KiB (0%)
    104. Title                          : 简体中文
    105. Language                       : Chinese
    106. Default                        : Yes
    107. Forced                         : No
    复制代码








    购买主题 已有 5 人购买  本主题需向作者支付 60 大洋 才能浏览
    郑重声明:
    本人提供的所有影视作品均是在网上搜集,任何涉及商业盈利目的均不得使用,否则产生的一切后果将由您自己承担!
    本人不对本人所发布的任何内容负任何法律责任!该下载内容仅做宽带测试使用,请在下载后24小时内删除。请购买正版!
    本人列出的文件没有保存在本站的服务器上,本人仅负责连接,本人对被传播文件的内容一无所知。
    如侵犯视频原作者或发行商版权,请联系本人删除!
    回复

    使用道具 举报

  • TA的每日心情

    5 小时前
  • 签到天数: 538 天

    [LV.9]以坛为家II

    0

    主题

    249

    帖子

    378

    积分

    超级影迷

    Rank: 6Rank: 6

    积分
    378
    发表于 3 天前 | 显示全部楼层
    非常支持 不错了
    回复

    使用道具 举报

  • TA的每日心情
    开心
    10 小时前
  • 签到天数: 154 天

    [LV.7]常住居民III

    1

    主题

    495

    帖子

    42

    积分

    初级影迷

    Rank: 2

    积分
    42
    发表于 3 天前 | 显示全部楼层
    感谢楼主的辛勤劳动
    回复

    使用道具 举报

  • TA的每日心情
    奋斗
    23 小时前
  • 签到天数: 538 天

    [LV.9]以坛为家II

    34

    主题

    4919

    帖子

    2041

    积分

    稀有影迷

    Rank: 12Rank: 12Rank: 12

    积分
    2041
    发表于 3 天前 | 显示全部楼层
    谢谢分享啊
    回复

    使用道具 举报

  • TA的每日心情
    开心
    2022-4-9 17:09
  • 签到天数: 4 天

    [LV.2]偶尔看看I

    0

    主题

    61

    帖子

    102

    积分

    中级影迷

    Rank: 3Rank: 3

    积分
    102
    发表于 前天 00:04 | 显示全部楼层
    #在这里快速回复#常支持 不错了
    回复

    使用道具 举报

  • TA的每日心情
    开心
    16 小时前
  • 签到天数: 68 天

    [LV.6]常住居民II

    5

    主题

    577

    帖子

    52

    积分

    初级影迷

    Rank: 2

    积分
    52
    发表于 前天 00:10 | 显示全部楼层
    很好很强大
    回复

    使用道具 举报

  • TA的每日心情

    昨天 02:03
  • 签到天数: 265 天

    [LV.8]以坛为家I

    0

    主题

    329

    帖子

    83

    积分

    中级影迷

    Rank: 3Rank: 3

    积分
    83
    发表于 前天 00:22 | 显示全部楼层
    赛文奥特曼出击
    回复

    使用道具 举报

  • TA的每日心情
    开心
    23 小时前
  • 签到天数: 205 天

    [LV.7]常住居民III

    9

    主题

    2017

    帖子

    368

    积分

    超级影迷

    Rank: 6Rank: 6

    积分
    368

    小土豪勋章

    发表于 前天 00:46 | 显示全部楼层
    看看这个版本
    回复

    使用道具 举报

  • TA的每日心情
    开心
    9 小时前
  • 签到天数: 294 天

    [LV.8]以坛为家I

    0

    主题

    2390

    帖子

    121

    积分

    中级影迷

    Rank: 3Rank: 3

    积分
    121
    发表于 前天 01:12 | 显示全部楼层
    谢谢老大经典资源。
    回复

    使用道具 举报

  • TA的每日心情
    慵懒
    23 小时前
  • 签到天数: 677 天

    [LV.9]以坛为家II

    5

    主题

    5293

    帖子

    320

    积分

    超级影迷

    Rank: 6Rank: 6

    积分
    320
    发表于 前天 01:20 | 显示全部楼层
    谢谢老大经典资源。
    回复

    使用道具 举报

    您需要登录后才可以回帖 登录 | 立即注册

    本版积分规则

    QQ|Archiver|手机版|小黑屋|影迷乐园

    GMT+8, 2022-5-17 23:11 , Processed in 0.091039 second(s), 31 queries .

    Powered by Discuz! X3.4

    Copyright © 2001-2020, Tencent Cloud.

    快速回复 返回顶部 返回列表