请选择 进入手机版 | 继续访问电脑版

YMLY-影迷乐园-特效字幕 蓝光原盘 1080P 高清动漫电影电视剧

 找回密码
 立即注册
搜索
查看: 475|回复: 33

[台湾] [百度][1992][1080P][青青河边草.无水印无台标][国语.繁中硬字][马景涛.刘雪华][42集全][MKV][56.2GB][WEB-DL]

[复制链接]
  • TA的每日心情
    开心
    昨天 00:55
  • 签到天数: 228 天

    [LV.7]常住居民III

    8

    主题

    1669

    帖子

    185

    积分

    高级影迷

    Rank: 4

    积分
    185
    发表于 2022-8-12 20:17:08 | 显示全部楼层 |阅读模式

    KKTV版,无台标,国语繁字,硬字幕。
    不同于其他都是带中视经典台的台标,这版没任何台标,猜测是KKTV用DVD版本优化成1080p。
    原始比例在线观看是16:9,人物看起来会虚胖。
    如果手动将比例调整成4:3的话,人物看起来就正常了。
    毕竟92年的电视剧,画质一般,感觉和80多G的差不多吧。




    导演: 沈怡
    编剧: 林久瑜
    主演: 马景涛 / 刘雪华 / 金铭 / 归亚蕾 / 岳跃利 / 更多...
    类型: 剧情 / 家庭
    制片国家/地区: 中国台湾
    语言: 汉语普通话
    首播: 1992-03-17(中国台湾)
    集数: 42
    单集片长: 45分钟
    又名: 六个梦之青青河边草 / Green Grass by the River
    IMDb: tt4083288

    青青河边草的剧情简介 · · · · · ·
      青青(岳翎 饰)与小草(金铭 饰)都是命苦的女孩。青青被哥嫂逼迫嫁给老头当妾,小草则整天受到舅妈的辱骂,不敢受命运束缚的她们决定双双逃走,远赴扬州投靠小草的亲人海爷爷。路上遇到了愤世嫉俗的离家青年何世纬(马景涛 饰)。种种原因让他们决定结伴同行。他们到达了傅家庄后,因失去儿子哭瞎了眼睛的傅夫人(归亚蕾 饰)误以为何世纬是自己已经死去的儿子元凯,拼命不让世纬离开,出于同情与傅家妾侍的恳求,世纬决定暂时留下。多时的相处下众人之间的感情剧增,没想到一连串爱恨情愁发生后,小草的身世之谜渐渐浮出了水面,一幕幕新仇旧恨也不绝上演…


    1. General
    2. Unique ID                      : 52439418502718809520110141263326883547 (0x277376F2639B84A9570AAFE8C4762EDB)
    3. Complete name                  : M:\青青河邊草.Green.Green.Grass.By.The.River.1992.S01E30.1080p.KKTV.WEB-DL.AAC2.0.H.264-SeeWEB.mkv
    4. Format                         : Matroska
    5. Format version                 : Version 4 / Version 2
    6. File size                      : 1.26 GiB
    7. Duration                       : 47mn 55s
    8. Overall bit rate               : 3 756 Kbps
    9. Encoded date                   : UTC 2022-05-11 11:58:45
    10. Writing application            : mkvmerge v63.0.0 ('Everything') 32-bit
    11. Writing library                : libebml v1.4.2 + libmatroska v1.6.4

    12. Video
    13. ID                             : 1
    14. Format                         : AVC
    15. Format/Info                    : Advanced Video Codec
    16. Format profile                 : High@L4.1
    17. Format settings, CABAC         : Yes
    18. Format settings, ReFrames      : 5 frames
    19. Codec ID                       : V_MPEG4/ISO/AVC
    20. Duration                       : 47mn 55s
    21. Bit rate                       : 3 531 Kbps
    22. Width                          : 1 920 pixels
    23. Height                         : 1 080 pixels
    24. Display aspect ratio           : 16:9
    25. Frame rate mode                : Constant
    26. Frame rate                     : 29.970 (30000/1001) fps
    27. Color space                    : YUV
    28. Chroma subsampling             : 4:2:0
    29. Bit depth                      : 8 bits
    30. Scan type                      : Progressive
    31. Bits/(Pixel*Frame)             : 0.057
    32. Stream size                    : 1.19 GiB (95%)
    33. Writing library                : x264 core 142
    34. Encoding settings              : cabac=1 / ref=5 / deblock=1:0:0 / analyse=0x3:0x113 / me=umh / subme=9 / psy=1 / psy_rd=1.00:0.00 / mixed_ref=1 / me_range=32 / chroma_me=1 / trellis=1 / 8x8dct=1 / cqm=0 / deadzone=21,11 / fast_pskip=1 / chroma_qp_offset=-2 / threads=6 / lookahead_threads=1 / sliced_threads=0 / nr=0 / decimate=1 / interlaced=0 / bluray_compat=0 / stitchable=1 / constrained_intra=0 / bframes=3 / b_pyramid=2 / b_adapt=1 / b_bias=0 / direct=3 / weightb=1 / open_gop=0 / weightp=2 / keyint=30 / keyint_min=3 / scenecut=0 / intra_refresh=0 / rc_lookahead=40 / rc=abr / mbtree=1 / bitrate=3531 / ratetol=1.0 / qcomp=0.60 / qpmin=0 / qpmax=69 / qpstep=4 / vbv_maxrate=5296 / vbv_bufsize=7944 / nal_hrd=none / filler=0 / ip_ratio=1.40 / aq=1:1.00
    35. Language                       : Chinese
    36. Default                        : Yes
    37. Forced                         : No

    38. Audio
    39. ID                             : 2
    40. Format                         : AAC
    41. Format/Info                    : Advanced Audio Codec
    42. Format profile                 : LC
    43. Codec ID                       : A_AAC
    44. Duration                       : 47mn 55s
    45. Bit rate                       : 192 Kbps
    46. Channel(s)                     : 2 channels
    47. Channel positions              : Front: L R
    48. Sampling rate                  : 44.1 KHz
    49. Frame rate                     : 43.066 fps (1024 spf)
    50. Compression mode               : Lossy
    51. Stream size                    : 65.8 MiB (5%)
    52. Title                          : Traditional
    53. Language                       : Chinese
    54. Default                        : Yes
    55. Forced                         : No

    复制代码

    以下为原始的16:9的比例,在线观看人物会虚胖。


    以下皆为手动调整为4:3的截图:









    为防和谐使用压缩包并设置密码。
    解压密码:
    qingqinghebiancao


    购买主题 已有 5 人购买  本主题需向作者支付 40 大洋 才能浏览
    回复

    使用道具 举报

  • TA的每日心情
    开心
    昨天 00:55
  • 签到天数: 228 天

    [LV.7]常住居民III

    8

    主题

    1669

    帖子

    185

    积分

    高级影迷

    Rank: 4

    积分
    185
     楼主| 发表于 2022-8-12 20:21:37 | 显示全部楼层
    本帖最后由 飞龙在天 于 2022-8-12 20:51 编辑

    这剧现在也就情怀收藏了。
    不知道有没有发错位置,先发这里看看。。。

    点评

    感谢分享,这个剧好老了。不过也算经典。  详情 回复 发表于 2022-8-12 21:28
    回复

    使用道具 举报

  • TA的每日心情
    奋斗
    昨天 22:19
  • 签到天数: 600 天

    [LV.9]以坛为家II

    1

    主题

    4483

    帖子

    1074

    积分

    资深影迷

    Rank: 10Rank: 10Rank: 10

    积分
    1074
    发表于 2022-8-12 21:27:02 | 显示全部楼层
    岳翎真的很不错,气质好,颜值也高
    回复

    使用道具 举报

  • TA的每日心情
    开心
    昨天 23:39
  • 签到天数: 273 天

    [LV.8]以坛为家I

    3

    主题

    501

    帖子

    307

    积分

    超级影迷

    Rank: 6Rank: 6

    积分
    307
    发表于 2022-8-12 21:28:11 | 显示全部楼层
    飞龙在天 发表于 2022-8-12 20:21
    这剧现在也就情怀收藏了。
    不知道有没有发错位置,先发这里看看。。。

    感谢分享,这个剧好老了。不过也算经典。
    回复

    使用道具 举报

  • TA的每日心情
    开心
    昨天 07:14
  • 签到天数: 138 天

    [LV.7]常住居民III

    11

    主题

    554

    帖子

    314

    积分

    超级影迷

    Rank: 6Rank: 6

    积分
    314
    发表于 2022-8-12 21:40:10 | 显示全部楼层
    能扒一下黄飞鸿与十三姨的KKTV版本吗?
    回复

    使用道具 举报

  • TA的每日心情
    奋斗
    5 天前
  • 签到天数: 315 天

    [LV.8]以坛为家I

    0

    主题

    3218

    帖子

    225

    积分

    高级影迷

    Rank: 4

    积分
    225
    发表于 2022-8-12 22:10:02 | 显示全部楼层
    可厉害了
    多谢楼主分享啦
    回复

    使用道具 举报

  • TA的每日心情
    开心
    1 小时前
  • 签到天数: 192 天

    [LV.7]常住居民III

    8

    主题

    2174

    帖子

    331

    积分

    超级影迷

    Rank: 6Rank: 6

    积分
    331
    发表于 2022-8-13 01:45:44 | 显示全部楼层
    谢谢分享啊
    回复

    使用道具 举报

    该用户从未签到

    0

    主题

    137

    帖子

    18

    积分

    入门影迷

    Rank: 1

    积分
    18
    发表于 2022-8-13 04:49:07 | 显示全部楼层
    终极顶终极顶终极顶终极顶
    回复

    使用道具 举报

    该用户从未签到

    0

    主题

    571

    帖子

    124

    积分

    中级影迷

    Rank: 3Rank: 3

    积分
    124
    发表于 2022-8-13 05:13:50 | 显示全部楼层
    Dreadnaught
    回复

    使用道具 举报

  • TA的每日心情
    开心
    昨天 06:51
  • 签到天数: 186 天

    [LV.7]常住居民III

    0

    主题

    1965

    帖子

    123

    积分

    中级影迷

    Rank: 3Rank: 3

    积分
    123
    发表于 2022-8-13 06:27:34 | 显示全部楼层
    谢谢分享!!
    回复

    使用道具 举报

    您需要登录后才可以回帖 登录 | 立即注册

    本版积分规则

    QQ|Archiver|手机版|小黑屋|影迷乐园

    GMT+8, 2022-10-2 01:47 , Processed in 0.090677 second(s), 28 queries .

    Powered by Discuz! X3.4

    Copyright © 2001-2020, Tencent Cloud.

    快速回复 返回顶部 返回列表