请选择 进入手机版 | 继续访问电脑版

YMLY-影迷乐园-特效字幕 蓝光原盘 1080P 高清动漫电影电视剧

 找回密码
 立即注册
搜索
查看: 11605|回复: 230

[115+百度][2023][泰勒·斯威夫特:时代巡回演唱会.加长版.杜比全景声][英语.简英.繁英特效字幕][21.08GB][MKV][Taylor.Swift.The.Eras.Tour.2023.Extended.2160p.AMZN.WEB-DL.DDP5.1.Atmos.H.264]

  [复制链接]
  • TA的每日心情
    慵懒
    昨天 12:26
  • 签到天数: 552 天

    [LV.9]以坛为家II

    201

    主题

    2990

    帖子

    2万

    积分

    影迷皇帝

    Rank: 20Rank: 20Rank: 20Rank: 20Rank: 20

    积分
    23891

    富甲一方土豪勋章小土豪勋章

    QQ
    发表于 2024-1-3 19:18:57 | 显示全部楼层 |阅读模式

    制作说明:

    字幕源自字幕库,视频来自AMZN官方发布。







    ◎名  称 泰勒·斯威夫特:时代巡回演唱会/泰勒·斯威夫特:时代之旅
    ◎年  代 2023
    ◎译  名 泰勒·斯威夫特:时代之旅
    ◎产  地 美国
    ◎类  型 纪录片/音乐/歌舞/真人秀
    ◎上映日期 2024-01(中国内地)/2023-10-13(美国)
    ◎IMDb评分  8.2/10 from 161904 users
    ◎IMDb链接  https://www.imdb.com/title/tt28814949/
    ◎豆瓣评分 9.4/10 from 48786 users
    ◎豆瓣链接 https://movie.douban.com/subject/36538847/
    ◎片  长 169分钟 / 181分钟(加长版)
    ◎官方网站   https://tstheerastourfilm.com
    ◎导  演 萨姆·伦奇 Sam Wrench
    ◎主  演 泰勒·斯威夫特
                      阿曼达·巴伦
                      泰勒·班克斯
                      凯伦·张
                      奥黛丽·道格拉斯
                      托里·埃文斯
                      田宫·路易斯
                      萨姆·麦克威廉姆斯
                      西德尼·莫斯
                      娜塔莉·彼得森
                      扬·拉夫尼克
                      娜塔莉·瑞德
                      卡梅伦·桑德斯
                      凯文·沙茨巴赫
                      拉斐尔·托马斯
                      怀利·吉村
                      比安卡·布莱恩特

    ◎简  介

           影片展现了全球流行音乐天后泰勒·斯威夫特2023年时代巡回演唱会的魅力音乐现场,极致呈现泰勒音乐生涯10张创作专辑内40余首歌曲的音乐能量,同时更以超强品质还原出巡回演出现场盛况。

    1. General
    2. Unique ID                      : 151742275414667201528448011972732725740 (0x72287FCBE70EA5B4B9AD81196EBB29EC)
    3. Complete name                  : D:\迅雷下载\泰勒·斯威夫特.时代巡回演唱会.加长版.Taylor.Swift.The.Eras.Tour.2023.Extended.2160p.AMZN.WEB-DL.DDP5.1.Atmos.H.264.4K杜比全景声.mkv
    4. Format                         : Matroska
    5. Format version                 : Version 4
    6. File size                      : 20.1 GiB
    7. Duration                       : 3 h 0 min
    8. Overall bit rate               : 15.9 Mb/s
    9. Frame rate                     : 23.976 FPS
    10. Encoded date                   : 2024-01-03 07:23:57 UTC
    11. Writing application            : mkvmerge v78.0 ('Running') 64-bit
    12. Writing library                : libebml v1.4.4 + libmatroska v1.7.1

    13. Video
    14. ID                             : 1
    15. Format                         : HEVC
    16. Format/Info                    : High Efficiency Video Coding
    17. Format profile                 : Main@L5@Main
    18. Codec ID                       : V_MPEGH/ISO/HEVC
    19. Duration                       : 3 h 0 min
    20. Bit rate                       : 15.0 Mb/s
    21. Width                          : 3 840 pixels
    22. Height                         : 1 600 pixels
    23. Display aspect ratio           : 2.40:1
    24. Frame rate mode                : Constant
    25. Frame rate                     : 23.976 (24000/1001) FPS
    26. Color space                    : YUV
    27. Chroma subsampling             : 4:2:0
    28. Bit depth                      : 8 bits
    29. Bits/(Pixel*Frame)             : 0.102
    30. Stream size                    : 18.9 GiB (94%)
    31. Language                       : English (US)
    32. Default                        : Yes
    33. Forced                         : No
    34. Color range                    : Limited
    35. Color primaries                : BT.709
    36. Transfer characteristics       : BT.709
    37. Matrix coefficients            : BT.709

    38. Audio
    39. ID                             : 2
    40. Format                         : E-AC-3 JOC
    41. Format/Info                    : Enhanced AC-3 with Joint Object Coding
    42. Commercial name                : Dolby Digital Plus with Dolby Atmos
    43. Codec ID                       : A_EAC3
    44. Duration                       : 3 h 0 min
    45. Bit rate mode                  : Constant
    46. Bit rate                       : 768 kb/s
    47. Channel(s)                     : 6 channels
    48. Channel layout                 : L R C LFE Ls Rs
    49. Sampling rate                  : 48.0 kHz
    50. Frame rate                     : 31.250 FPS (1536 SPF)
    51. Compression mode               : Lossy
    52. Delay relative to video        : 19 ms
    53. Stream size                    : 994 MiB (5%)
    54. Language                       : English (US)
    55. Service kind                   : Complete Main
    56. Default                        : Yes
    57. Forced                         : No
    58. Complexity index               : 16
    59. Number of dynamic objects      : 15
    60. Bed channel count              : 1 channel
    61. Bed channel configuration      : LFE

    62. Text #1
    63. ID                             : 3
    64. Format                         : ASS
    65. Codec ID                       : S_TEXT/ASS
    66. Codec ID/Info                  : Advanced Sub Station Alpha
    67. Duration                       : 3 h 0 min
    68. Bit rate                       : 229 b/s
    69. Frame rate                     : 0.239 FPS
    70. Count of elements              : 2594
    71. Compression mode               : Lossless
    72. Stream size                    : 304 KiB (0%)
    73. Title                          : 简体中英字幕
    74. Language                       : Multiple languages
    75. Default                        : No
    76. Forced                         : No

    77. Text #2
    78. ID                             : 4
    79. Format                         : ASS
    80. Codec ID                       : S_TEXT/ASS
    81. Codec ID/Info                  : Advanced Sub Station Alpha
    82. Duration                       : 3 h 0 min
    83. Bit rate                       : 225 b/s
    84. Frame rate                     : 0.239 FPS
    85. Count of elements              : 2594
    86. Compression mode               : Lossless
    87. Stream size                    : 299 KiB (0%)
    88. Title                          : 繁体中英字幕
    89. Language                       : Multiple languages
    90. Default                        : No
    91. Forced                         : No

    92. Text #3
    93. ID                             : 5
    94. Format                         : PGS
    95. Muxing mode                    : zlib
    96. Codec ID                       : S_HDMV/PGS
    97. Codec ID/Info                  : Picture based subtitle format used on BDs/HD-DVDs
    98. Duration                       : 3 h 0 min
    99. Bit rate                       : 72.9 kb/s
    100. Frame rate                     : 0.343 FPS
    101. Count of elements              : 3714
    102. Stream size                    : 94.3 MiB (0%)
    103. Title                          : 精校中英特效
    104. Language                       : Multiple languages
    105. Default                        : No
    106. Forced                         : No

    107. Text #4
    108. ID                             : 6
    109. Format                         : PGS
    110. Muxing mode                    : zlib
    111. Codec ID                       : S_HDMV/PGS
    112. Codec ID/Info                  : Picture based subtitle format used on BDs/HD-DVDs
    113. Duration                       : 3 h 0 min
    114. Bit rate                       : 102 kb/s
    115. Frame rate                     : 0.443 FPS
    116. Count of elements              : 4804
    117. Stream size                    : 132 MiB (1%)
    118. Title                          : 简英特效字幕
    119. Language                       : Multiple languages
    120. Default                        : No
    121. Forced                         : No

    122. Text #5
    123. ID                             : 7
    124. Format                         : PGS
    125. Muxing mode                    : zlib
    126. Codec ID                       : S_HDMV/PGS
    127. Codec ID/Info                  : Picture based subtitle format used on BDs/HD-DVDs
    128. Duration                       : 3 h 0 min
    129. Bit rate                       : 102 kb/s
    130. Frame rate                     : 0.443 FPS
    131. Count of elements              : 4804
    132. Stream size                    : 132 MiB (1%)
    133. Title                          : 繁英特效字幕
    134. Language                       : Multiple languages
    135. Default                        : No
    136. Forced                         : No

    137. Menu
    138. 00:00:00.000                   : en:Disclaimer
    139. 00:00:10.000                   : en:Miss Americana & The Heartbreak Prince
    140. 00:02:54.000                   : en:Cruel Summer
    141. 00:06:37.000                   : en:Scene 4
    142. 00:09:26.000                   : en:The Man
    143. 00:12:45.000                   : en:You Need to Calm Down
    144. 00:14:30.000                   : en:Lover
    145. 00:20:04.000                   : en:Fearless
    146. 00:23:11.000                   : en:You Belong With Me
    147. 00:27:12.000                   : en:Love Story
    148. 00:31:10.000                   : en:willow
    149. 00:36:07.000                   : en:marjorie
    150. 00:39:15.000                   : en:champagne problems
    151. 00:45:45.000                   : en:tolerate it
    152. 00:51:07.000                   : en:...ready for it?
    153. 00:55:19.000                   : en:delicate
    154. 00:59:13.000                   : en:don't blame me
    155. 01:02:38.000                   : en:look what you made me do
    156. 01:06:24.000                   : en:Enchanted
    157. 01:10:54.000                   : en:22
    158. 01:14:54.000                   : en:We Are Never Ever Getting Back Together
    159. 01:18:13.000                   : en:I Knew You Were Trouble
    160. 01:20:40.000                   : en:All Too Well (10 Minute Version)
    161. 01:31:11.000                   : en:the 1
    162. 01:34:58.000                   : en:betty
    163. 01:41:42.000                   : en:the last great american dynasty
    164. 01:45:38.000                   : en:august
    165. 01:49:08.000                   : en:illicit affairs
    166. 01:50:55.000                   : en:my tear ricochet
    167. 01:54:59.000                   : en:Style
    168. 01:57:40.000                   : en:Blank Space
    169. 02:01:47.000                   : en:Shake It Off
    170. 02:05:33.000                   : en:Bad Blood
    171. 02:07:55.000                   : en:Our Song
    172. 02:12:58.000                   : en:You're On Your Own, Kid
    173. 02:16:37.000                   : en:Scene 36
    174. 02:17:24.000                   : en:Lavender Haze
    175. 02:21:39.000                   : en:Scene 38
    176. 02:25:04.000                   : en:Midnight Rain
    177. 02:27:54.000                   : en:Vigilante Shit
    178. 02:30:43.000                   : en:Bejeweled
    179. 02:34:04.000                   : en:Mastermind
    180. 02:37:26.000                   : en:Karma
    181. 02:43:23.000                   : en:Extra Performances - The Archer
    182. 02:47:18.000                   : en:Extra Performances - Wildest Dream
    183. 02:49:44.000                   : en:Extra Performances - Long Live
    184. 02:55:29.000                   : en:End Credits
    复制代码
















    我的精品资源
    01、[大秦帝国四部曲.Netflix收藏版][全217集][MKV][418.45GB][1080p.NF.WEB-DL.AAC2.0.x26]
    02、[清帝三部曲:康熙 雍正 乾隆王朝][134集全][MKV][316.45GB][1080p.h265.AC3.60FPS]
    03、[四大名著:三国  红楼  水浒 西游记及续集][共204集全][544.31GB][1080p.h265.AC3.60FPS]
    04、[走向共和.海外未删减版][68集全][MKV][172.78GB][1080P.H265.AI修复.60FPS]
    05、[大明王朝1566][46集全][MKV][129.48GB][AI修复1080P.H265.60FPS]
    06、[四世同堂][邵华.李维康][全28集][MKV][39.94G][1080P.H265.10bit.50fps]
    07、[东周列国][唐国强.王绘春.杨立新][全62集][MKV][94.78G][1080P.H265.50FPS]
    08、[伪装者.Netflix收藏版][41集全][73.26G][MKV][Netflix.1080p.h264.avc1]
    09、[茶馆][国语.精校硬简中][全39集][MKV][66.77G][1080P.H265.10bit.50fps]
    10、[岁月][胡军.梅婷][全23集][MKV][58G][1080P.H265.AI修复.50FPS]
    11、[汉武大帝][陈宝国.焦晃.归亚蕾][全58集][MKV][132.81G][1080P.H265.60FPS]
    12、[过把瘾][王志文.江珊][8集全][MKV][11.56G][1080P.H265.AI修复.50FPS]
    13、[贞观之治][马跃.苗圃][全50集][MKV][97G][1080P.H265.AI修复.60FPS]
    14、[中国通史][全100集][国语中字][64G][1080p.H264.AAC]
    15、[鹿鼎记][陈小春.马浚伟][国粤双语.简繁软中字幕][45集][57.88G][mytv.1080p]
    16、[2008][1080P][笃姬][日语.外挂简中][全50集][MKV][71.85G]
    17、[东京日和][日语.硬繁中字][3.96GB][1080p.WEB-DL]
    18、[光阴的故事][2160P][ 陈怡蓉.赖雅妍.杨一展][国语.硬中字幕][110集][mp4][62.88G]
    19、[怦然心动][国英双语.内封简英繁英双字][14.2GB]1080p.REMUX.MA.5.1]
    20、[乔家大院][全45集][国语硬中字][45.01G][1080p.HEVC.dxva.AAC-HQC]
    21、[永不消逝的电波][国语.硬中字][38集全][58.22GB][1080p.H264.AVC1]
    22、[后宫·甄嬛传][[4K]国语中字][孙俪.陈建斌.蔡少芬][76集全][[mp4][197.98GB]
    23、[后宫·如懿传][4K][国语中字][周迅.霍建华][87集全][[MKV][350.88GB][稀缺资源]
    24、[延禧攻略][4K][国语无字][秦岚.吴谨言.聂远.佘诗曼][70集全][MKV][312.88GB]
    25、[废柴联盟.全六季][英语.中英字幕][MKV][45.00GB][1080p.BluRay.DD5.1.x265-POIASD]
    26、[好汉两个半.全十二季][英语.中英硬字幕][182.06GB][Amazon.WEB-DL.1080p.h264-TrollHD]
    27、[飞天大盗.全八季][英语.中英字幕][131.57G][1080p.HEVC.AAC]
    28、[副总统.全七季][英语.中英字幕][58.4GB][1080P.BluRay.x265.AAC.5.1]
    29、[越南战争][全10集][英语.简中.简英.繁英双字][34.11GB][BluRay.x265.10bit]
    30、[二战全史.全26集][英语.简中.简英.繁英字幕][45.6GB][1080p.x265.FRDS]
    31、[红楼梦.全6部][国语.内嵌中字.英字][1989][陶慧敏][96.36GB][AI.1080p]
    32、[泰勒·斯威夫特.时代巡回演唱会.加长版.杜比全景声][特效字幕][2160p]
    33、[摔跤吧!爸爸][国印双语.特效双字][2016][Dangal.1080p.TrueHD.7.1]
    34、[降世神通:科拉传奇][英语.中英字幕][全四季][2012][1080P][42.05G]
    35、[奥本海默][杜比全景声.内封特效字幕][2023.1080p.REMUX.DTS-HD.MA.5.1]




    ——



    购买主题 已有 156 人购买  本主题需向作者支付 30 大洋 才能浏览
    和光同尘,心中无悔。
    回复

    使用道具 举报

  • TA的每日心情
    开心
    前天 15:49
  • 签到天数: 1597 天

    [LV.Master]伴坛终老

    6

    主题

    2082

    帖子

    223

    积分

    高级影迷

    Rank: 4

    积分
    223
    发表于 2024-1-3 19:32:27 | 显示全部楼层
    楼主发贴辛苦了,谢谢楼主的精彩分享!
    回复

    使用道具 举报

    该用户从未签到

    3

    主题

    1386

    帖子

    93

    积分

    中级影迷

    Rank: 3Rank: 3

    积分
    93
    发表于 2024-1-3 20:23:56 | 显示全部楼层
    6666666666666666
    回复

    使用道具 举报

    该用户从未签到

    3

    主题

    1386

    帖子

    93

    积分

    中级影迷

    Rank: 3Rank: 3

    积分
    93
    发表于 2024-1-3 20:24:31 | 显示全部楼层
    6666666666666666
    回复

    使用道具 举报

  • TA的每日心情
    奋斗
    1 小时前
  • 签到天数: 826 天

    [LV.10]以坛为家III

    1

    主题

    1675

    帖子

    155

    积分

    高级影迷

    Rank: 4

    积分
    155
    发表于 2024-1-3 20:27:02 | 显示全部楼层
    谢谢分享.....
    回复

    使用道具 举报

  • TA的每日心情
    无聊
    2024-3-13 20:04
  • 签到天数: 472 天

    [LV.9]以坛为家II

    16

    主题

    1412

    帖子

    170

    积分

    高级影迷

    Rank: 4

    积分
    170
    发表于 2024-1-3 20:31:22 | 显示全部楼层
    刚看完电影 在下个资源
    回复

    使用道具 举报

  • TA的每日心情
    开心
    昨天 10:15
  • 签到天数: 1720 天

    [LV.Master]伴坛终老

    3

    主题

    2714

    帖子

    1338

    积分

    资深影迷

    Rank: 10Rank: 10Rank: 10

    积分
    1338

    小土豪勋章土豪勋章

    发表于 2024-1-3 20:37:35 | 显示全部楼层
    可以,谢谢啦!
    回复

    使用道具 举报

  • TA的每日心情
    奋斗
    昨天 21:21
  • 签到天数: 171 天

    [LV.7]常住居民III

    0

    主题

    203

    帖子

    64

    积分

    初级影迷

    Rank: 2

    积分
    64
    发表于 2024-1-3 20:39:56 | 显示全部楼层
    谢谢楼主分享!!
    回复

    使用道具 举报

  • TA的每日心情
    开心
    昨天 21:39
  • 签到天数: 254 天

    [LV.8]以坛为家I

    0

    主题

    1060

    帖子

    301

    积分

    超级影迷

    Rank: 6Rank: 6

    积分
    301
    发表于 2024-1-3 20:47:28 | 显示全部楼层
    泰勒·斯威夫特真是个大美人啊
    回复

    使用道具 举报

  • TA的每日心情
    开心
    前天 10:15
  • 签到天数: 677 天

    [LV.9]以坛为家II

    3

    主题

    1万

    帖子

    663

    积分

    专业影迷

    Rank: 8Rank: 8

    积分
    663
    发表于 2024-1-3 20:50:39 | 显示全部楼层
    谢谢楼主分享!!
    回复

    使用道具 举报

    您需要登录后才可以回帖 登录 | 立即注册

    本版积分规则

    QQ|Archiver|手机版|小黑屋|影迷乐园

    GMT+8, 2024-4-15 01:58 , Processed in 0.125399 second(s), 30 queries .

    Powered by Discuz! X3.4

    Copyright © 2001-2020, Tencent Cloud.

    快速回复 返回顶部 返回列表