请选择 进入手机版 | 继续访问电脑版

YMLY-影迷乐园-特效字幕 蓝光原盘 1080P 高清动漫电影电视剧

 找回密码
 立即注册
搜索
查看: 4494|回复: 172

[大陆] [115+百度][1989][红楼梦.全6部][国语.内嵌中字.英字][夏菁.陶慧敏][96.36GB][MKV][A.Dream.in.Red.Mansions.EP01-12.1989.AI.1080p.H264.DD2.0.Mandarin-FFansAIeNcE]

  [复制链接]
  • TA的每日心情
    慵懒
    昨天 12:26
  • 签到天数: 552 天

    [LV.9]以坛为家II

    201

    主题

    2990

    帖子

    2万

    积分

    影迷皇帝

    Rank: 20Rank: 20Rank: 20Rank: 20Rank: 20

    积分
    23891

    富甲一方土豪勋章小土豪勋章

    QQ
    发表于 2024-1-18 14:24:27 | 显示全部楼层 |阅读模式

    豆瓣评论:
    与87电视版红楼一时瑜亮,互有短长。不足之处:
    1、音乐略有不如;
    2、刘晓庆版王熙凤用力过猛;
    3、结尾采用高续。高鹗文才有限,对人生理解更不及曹公之万一。
    除以上三点外,其余种种均有过之。






    ◎译  名 A Dream in Red Mansions / 系列故事片《红楼梦》
    ◎片  名 红楼梦
    ◎年  代 1989
    ◎产  地 中国大陆
    ◎类  别 剧情 / 古装
    ◎语  言 汉语普通话
    ◎上映日期 1989
    ◎IMDb评分  7.7/10 from 65 users
    ◎IMDb链接  https://www.imdb.com/title/tt0106772
    ◎豆瓣评分 8.0/10 from 4970 users
    ◎豆瓣链接 https://movie.douban.com/subject/1434270/
    ◎片  长 160分钟
    ◎导  演 谢铁骊 Tieli Xie / 赵元 Yuan Zhao
    ◎编  剧 谢铁骊 Tieli Xie / 谢逢松 Fengsong Xie / 曹雪芹 Xueqin Cao
    ◎主  演 夏菁 Jing Xia
           陶慧敏 Huimin Tao
           傅艺伟 Yiwei Fu
           刘晓庆 Xiaoqing Liu
           林默予 Moyu Lin
           章杰 Jie Zhang
           赵丽蓉 Lirong Zhao
           何赛飞 Saifei He
           李法曾 Fazeng Li
           季艳梅 Yanmei Ji
           马盛君 Shengjun Ma
           李伟建 Weijian Li
           田洪涛 Hongtao Tian
           李健 Jian Li
           李梓 Zi Li
           王云霞 Yunxia Wang
           范青山 Qingshan Fan
           黄素影 Suying Huang
           李秀明 Xiuming Li
           周舟 Zhou Zhou
           马晓晴 Xiaoqing Ma
           凌元 Yuan Ling
           何晴 Qing He
           李明珠 Mingzhu Li
           李勇勇 Yongyong Li
           李伟健 Weijian Li
           邢金沙 Jinsha  Xing
           杨世华 Shihua Yang
           陈红 Hong Chen


    ◎标  签 红楼梦 | 中国 | 谢铁骊 | 名著改编 | 经典 | 中国电影 | 大陆 | 电影

    ◎简  介  

      中国观众大多对上世纪八十年代中期拍摄的电视连续剧版红楼梦耳熟能详,而对稍晚于此拍摄完成的电影版红楼梦却知之甚少。与电视连续剧相比,给予电影版的评论一直是毁誉参半,甚至是毁多于誉。对电影版红楼梦评价一直不高的主要原因,除去电视连续剧版自身的成功之处外,恐怕还有观众们先入为主的心理。电影版红楼梦的拍摄工作始于1988年,由北京电影制片厂拍摄,总导演谢铁骊。从开拍到完成历时两年。这部投资巨大、全长735分钟、共分六部八集的电影巨著创造了新中国电影史上的多项纪录。其艺术成就不仅令过去所有红楼梦电影版本黯然失色,即使与同时代的电视连续剧版相比也毫不逊色。首先,在选角方面,电影版除起用刘晓庆(饰演王熙凤)、林默予(饰演贾母)等知名演员外,还大胆起用了多位越剧演员饰演原著中的主要女性角色。如陶慧敏饰演林黛玉,何赛飞饰演妙玉、李勇勇饰演晴雯等。这些越剧演员大多曾在越剧红楼梦中饰演相同角色,因此理解起角色来可以说是驾轻就熟、游刃有余。此外,由赵丽蓉饰演诙谐幽默的刘姥姥也是电影中的一大看点。较之电视连续剧主要以业余演员担纲主演,电影版的演员阵容显然更具实力。其次,电影版删去了原著中一些游离于宝黛爱情悲剧之外的内容,影片情节紧扣宝黛爱情发展这条主线,突出展现宝玉和黛玉从初识、初恋到定情,直至黛玉亡故的全过程。情节的紧凑使得剧中的矛盾更加突出,而人物也在剧烈的矛盾中得以充分刻画。红楼梦很大程度上可以看作是一部艺术电影。通过电影独特艺术魅力的运用,为我们展现了一幅幅优美隽永的画卷,如黛玉葬花、卢雪庵联句、晴雯补裘、怡红夜宴等。而当看到黛玉焚稿一幕时,相信每一位观众都会叹息而潸然泪下。更为重要的是,电影版红楼梦最大程度上忠实了原著续书。电视连续剧红楼梦的结尾几集,主要是根据多年来红学研究原著可能的结局线索而拍摄的。如宝玉丢玉、黛玉之死等情节都与原著续书大相径庭。这对于红学研究的探索虽然不无益处,但对二百年来高鹗所著续书使红楼梦能够广为流传的巨大贡献却有否定之嫌。电影版红楼梦本着尊重原著的态度,将高鹗续书中的精彩部分加以提炼,基本保留了续书中对各主要人物结局的交代。使得观众能看到一个真正完整的红楼梦故事版本。

    ◎获奖情况  

      第10届中国电影金鸡奖(1990)
      最佳导演 谢铁骊
      最佳女配角 林默予
      最佳美术 杨占家 / 陈翼云
      最佳服装
      最佳化妆(提名)
      最佳道具(提名)

      第13届大众电影百花奖(1990)
      最佳女配角 林默予

    1. General
    2. Unique ID                      : 249960473461749718259924942610742416040 (0xBC0CA2D5D506F332810779EE3AD892A8)
    3. Complete name                  : G:\红楼梦[北影版]\红楼梦第一部.宝黛相会\[红楼梦第一部.宝黛相会.上].Bao.Dai.Xiang.Hui.Part.1.1989.V2.A.I.1080p.H264.DD2.0.Mandarin-FFansAIeNcE.mkv
    4. Format                         : Matroska
    5. Format version                 : Version 4
    6. File size                      : 12.9 GiB
    7. Duration                       : 1 h 23 min
    8. Overall bit rate               : 22.1 Mb/s
    9. Frame rate                     : 29.970 FPS
    10. Movie name                     : 电影烧包AI
    11. Encoded date                   : 2021-12-11 11:19:54 UTC
    12. Writing application            : mkvmerge v9.4.0 ('Knurl') 64bit
    13. Writing library                : libebml v1.3.4 + libmatroska v1.4.5
    14. Cover                          : Yes
    15. Attachments                    : cover h.jpg

    16. Video
    17. ID                             : 1
    18. Format                         : AVC
    19. Format/Info                    : Advanced Video Codec
    20. Format profile                 : High@L5.1
    21. Format settings                : CABAC / 8 Ref Frames
    22. Format settings, CABAC         : Yes
    23. Format settings, Reference fra : 8 frames
    24. Codec ID                       : V_MPEG4/ISO/AVC
    25. Duration                       : 1 h 23 min
    26. Bit rate                       : 21.8 Mb/s
    27. Width                          : 1 440 pixels
    28. Height                         : 1 080 pixels
    29. Display aspect ratio           : 4:3
    30. Frame rate mode                : Constant
    31. Frame rate                     : 29.970 (30000/1001) FPS
    32. Color space                    : YUV
    33. Chroma subsampling             : 4:2:0
    34. Bit depth                      : 8 bits
    35. Scan type                      : Progressive
    36. Bits/(Pixel*Frame)             : 0.469
    37. Stream size                    : 12.8 GiB (99%)
    38. Writing library                : x264 core 148 r2638 7599210
    39. Encoding settings              : cabac=1 / ref=8 / deblock=1:-3:-3 / analyse=0x3:0x133 / me=umh / subme=8 / psy=1 / psy_rd=1.02:0.04 / mixed_ref=1 / me_range=32 / chroma_me=1 / trellis=2 / 8x8dct=1 / cqm=0 / deadzone=21,11 / fast_pskip=1 / chroma_qp_offset=-3 / threads=30 / lookahead_threads=7 / sliced_threads=0 / nr=0 / decimate=0 / interlaced=0 / bluray_compat=0 / constrained_intra=0 / bframes=5 / b_pyramid=2 / b_adapt=2 / b_bias=0 / direct=3 / weightb=1 / open_gop=1 / weightp=2 / keyint=479 / keyint_min=29 / scenecut=38 / intra_refresh=0 / rc_lookahead=60 / rc=crf / mbtree=1 / crf=17.0 / qcomp=0.60 / qpmin=0 / qpmax=69 / qpstep=4 / vbv_maxrate=300000 / vbv_bufsize=300000 / crf_max=0.0 / nal_hrd=none / filler=0 / ip_ratio=1.40 / aq=1:0.80
    40. Language                       : Chinese
    41. Default                        : Yes
    42. Forced                         : No
    43. Color range                    : Limited
    44. Color primaries                : BT.709
    45. Transfer characteristics       : BT.709
    46. Matrix coefficients            : BT.709

    47. Audio
    48. ID                             : 2
    49. Format                         : AC-3
    50. Format/Info                    : Audio Coding 3
    51. Commercial name                : Dolby Digital
    52. Codec ID                       : A_AC3
    53. Duration                       : 1 h 23 min
    54. Bit rate mode                  : Constant
    55. Bit rate                       : 224 kb/s
    56. Channel(s)                     : 2 channels
    57. Channel layout                 : L R
    58. Sampling rate                  : 48.0 kHz
    59. Frame rate                     : 31.250 FPS (1536 SPF)
    60. Compression mode               : Lossy
    61. Stream size                    : 134 MiB (1%)
    62. Title                          : Mandarin
    63. Language                       : Chinese
    64. Service kind                   : Complete Main
    65. Default                        : Yes
    66. Forced                         : No

    67. Text #1
    68. ID                             : 3
    69. Format                         : VobSub
    70. Muxing mode                    : zlib
    71. Codec ID                       : S_VOBSUB
    72. Codec ID/Info                  : Picture based subtitle format used on DVDs
    73. Duration                       : 1 h 21 min
    74. Bit rate                       : 1 925 b/s
    75. Frame rate                     : 0.177 FPS
    76. Count of elements              : 866
    77. Stream size                    : 1.12 MiB (0%)
    78. Title                          : SUB中简
    79. Language                       : Chinese
    80. Default                        : Yes
    81. Forced                         : Yes

    82. Text #2
    83. ID                             : 4
    84. Format                         : VobSub
    85. Muxing mode                    : zlib
    86. Codec ID                       : S_VOBSUB
    87. Codec ID/Info                  : Picture based subtitle format used on DVDs
    88. Duration                       : 1 h 23 min
    89. Bit rate                       : 2 282 b/s
    90. Frame rate                     : 0.174 FPS
    91. Count of elements              : 871
    92. Stream size                    : 1.36 MiB (0%)
    93. Title                          : SUB英字
    94. Language                       : English
    95. Default                        : No
    96. Forced                         : No
    复制代码

















    我的精品资源
    01、[大秦帝国四部曲.Netflix收藏版][全217集][MKV][418.45GB][1080p.NF.WEB-DL.AAC2.0.x26]
    02、[清帝三部曲:康熙 雍正 乾隆王朝][134集全][MKV][316.45GB][1080p.h265.AC3.60FPS]
    03、[四大名著:三国  红楼  水浒 西游记及续集][共204集全][544.31GB][1080p.h265.AC3.60FPS]
    04、[走向共和.海外未删减版][68集全][MKV][172.78GB][1080P.H265.AI修复.60FPS]
    05、[大明王朝1566][46集全][MKV][129.48GB][AI修复1080P.H265.60FPS]
    06、[四世同堂][邵华.李维康][全28集][MKV][39.94G][1080P.H265.10bit.50fps]
    07、[东周列国][唐国强.王绘春.杨立新][全62集][MKV][94.78G][1080P.H265.50FPS]
    08、[伪装者.Netflix收藏版][41集全][73.26G][MKV][Netflix.1080p.h264.avc1]
    09、[茶馆][国语.精校硬简中][全39集][MKV][66.77G][1080P.H265.10bit.50fps]
    10、[岁月][胡军.梅婷][全23集][MKV][58G][1080P.H265.AI修复.50FPS]
    11、[汉武大帝][陈宝国.焦晃.归亚蕾][全58集][MKV][132.81G][1080P.H265.60FPS]
    12、[过把瘾][王志文.江珊][8集全][MKV][11.56G][1080P.H265.AI修复.50FPS]
    13、[贞观之治][马跃.苗圃][全50集][MKV][97G][1080P.H265.AI修复.60FPS]
    14、[中国通史][全100集][国语中字][64G][1080p.H264.AAC]
    15、[鹿鼎记][陈小春.马浚伟][国粤双语.简繁软中字幕][45集][57.88G][mytv.1080p]
    16、[2008][1080P][笃姬][日语.外挂简中][全50集][MKV][71.85G]
    17、[东京日和][日语.硬繁中字][3.96GB][1080p.WEB-DL]
    18、[光阴的故事][2160P][ 陈怡蓉.赖雅妍.杨一展][国语.硬中字幕][110集][mp4][62.88G]
    19、[怦然心动][国英双语.内封简英繁英双字][14.2GB]1080p.REMUX.MA.5.1]
    20、[乔家大院][全45集][国语硬中字][45.01G][1080p.HEVC.dxva.AAC-HQC]
    21、[永不消逝的电波][国语.硬中字][38集全][58.22GB][1080p.H264.AVC1]
    22、[后宫·甄嬛传][[4K]国语中字][孙俪.陈建斌.蔡少芬][76集全][[mp4][197.98GB]
    23、[后宫·如懿传][4K][国语中字][周迅.霍建华][87集全][[MKV][350.88GB][稀缺资源]
    24、[延禧攻略][4K][国语无字][秦岚.吴谨言.聂远.佘诗曼][70集全][MKV][312.88GB]
    25、[废柴联盟.全六季][英语.中英字幕][MKV][45.00GB][1080p.BluRay.DD5.1.x265-POIASD]
    26、[好汉两个半.全十二季][英语.中英硬字幕][182.06GB][Amazon.WEB-DL.1080p.h264-TrollHD]
    27、[飞天大盗.全八季][英语.中英字幕][131.57G][1080p.HEVC.AAC]
    28、[副总统.全七季][英语.中英字幕][58.4GB][1080P.BluRay.x265.AAC.5.1]
    29、[越南战争][全10集][英语.简中.简英.繁英双字][34.11GB][BluRay.x265.10bit]
    30、[二战全史.全26集][英语.简中.简英.繁英字幕][45.6GB][1080p.x265.FRDS]
    31、[红楼梦.全6部][国语.内嵌中字.英字][1989][陶慧敏][96.36GB][AI.1080p]
    32、[泰勒·斯威夫特.时代巡回演唱会.加长版.杜比全景声][特效字幕][2160p]
    33、[摔跤吧!爸爸][国印双语.特效双字][2016][Dangal.1080p.TrueHD.7.1]
    34、[降世神通:科拉传奇][英语.中英字幕][全四季][2012][1080P][42.05G]
    35、[奥本海默][杜比全景声.内封特效字幕][2023.1080p.REMUX.DTS-HD.MA.5.1]




    ——



    购买主题 已有 57 人购买  本主题需向作者支付 120 大洋 才能浏览
    和光同尘,心中无悔。
    回复

    使用道具 举报

  • TA的每日心情
    无聊
    2024-3-30 12:29
  • 签到天数: 34 天

    [LV.5]常住居民I

    0

    主题

    2444

    帖子

    225

    积分

    高级影迷

    Rank: 4

    积分
    225
    发表于 2024-1-18 15:08:15 | 显示全部楼层
    膝盖奉上,这个版本太好了,多谢楼主
    回复

    使用道具 举报

  • TA的每日心情
    开心
    2024-3-13 11:50
  • 签到天数: 10 天

    [LV.3]偶尔看看II

    0

    主题

    74

    帖子

    52

    积分

    初级影迷

    Rank: 2

    积分
    52
    发表于 2024-1-18 16:02:05 | 显示全部楼层
    非常好的资源
    回复

    使用道具 举报

  • TA的每日心情
    开心
    4 天前
  • 签到天数: 476 天

    [LV.9]以坛为家II

    6

    主题

    3155

    帖子

    405

    积分

    超级影迷

    Rank: 6Rank: 6

    积分
    405
    发表于 2024-1-18 16:43:47 | 显示全部楼层
    这个资源强悍哦,谢谢,收藏了。
    祝腊八节节日快乐!
    回复

    使用道具 举报

  • TA的每日心情
    难过
    7 天前
  • 签到天数: 19 天

    [LV.4]偶尔看看III

    6

    主题

    344

    帖子

    24

    积分

    入门影迷

    Rank: 1

    积分
    24
    QQ
    发表于 2024-1-18 16:52:23 | 显示全部楼层
    稀缺好剧啊,还是1080p的
    非常开心发现这个有趣的平台!
    回复

    使用道具 举报

  • TA的每日心情
    擦汗
    昨天 23:31
  • 签到天数: 528 天

    [LV.9]以坛为家II

    0

    主题

    732

    帖子

    390

    积分

    超级影迷

    Rank: 6Rank: 6

    积分
    390
    发表于 2024-1-18 18:44:14 | 显示全部楼层
    感谢分享!
    回复

    使用道具 举报

  • TA的每日心情
    慵懒
    2024-4-4 23:34
  • 签到天数: 693 天

    [LV.9]以坛为家II

    1

    主题

    987

    帖子

    202

    积分

    高级影迷

    Rank: 4

    积分
    202
    发表于 2024-1-18 18:55:25 | 显示全部楼层
    好一部长篇电影。感谢!
    回复

    使用道具 举报

  • TA的每日心情
    开心
    昨天 13:34
  • 签到天数: 867 天

    [LV.10]以坛为家III

    0

    主题

    2014

    帖子

    141

    积分

    中级影迷

    Rank: 3Rank: 3

    积分
    141
    发表于 2024-1-18 19:36:40 | 显示全部楼层
    感谢楼主分享
    回复

    使用道具 举报

  • TA的每日心情
    开心
    昨天 22:49
  • 签到天数: 483 天

    [LV.9]以坛为家II

    3

    主题

    3548

    帖子

    416

    积分

    超级影迷

    Rank: 6Rank: 6

    积分
    416
    发表于 2024-1-18 20:08:02 | 显示全部楼层
    谢谢楼主分享优质资源,希望影迷乐园越办越好!~
    回复

    使用道具 举报

  • TA的每日心情
    开心
    昨天 18:32
  • 签到天数: 1446 天

    [LV.10]以坛为家III

    33

    主题

    2088

    帖子

    239

    积分

    高级影迷

    Rank: 4

    积分
    239
    发表于 2024-1-18 20:14:03 | 显示全部楼层
    回复

    使用道具 举报

    您需要登录后才可以回帖 登录 | 立即注册

    本版积分规则

    QQ|Archiver|手机版|小黑屋|影迷乐园

    GMT+8, 2024-4-15 01:44 , Processed in 0.158871 second(s), 29 queries .

    Powered by Discuz! X3.4

    Copyright © 2001-2020, Tencent Cloud.

    快速回复 返回顶部 返回列表