请选择 进入手机版 | 继续访问电脑版

YMLY-影迷乐园-特效字幕 蓝光原盘 1080P 高清动漫电影电视剧

 找回密码
 立即注册
搜索
查看: 300|回复: 19

[日本] [百度][2005][1080P][好逑双物语][日语.外挂中文字幕][11集全][MKV][15.42GB][WEB-DL]

[复制链接]
  • TA的每日心情
    擦汗
    10 小时前
  • 签到天数: 1161 天

    [LV.10]以坛为家III

    241

    主题

    2773

    帖子

    6438

    积分

    史诗影迷

    Rank: 16Rank: 16Rank: 16Rank: 16

    积分
    6438

    土豪勋章小土豪勋章富甲一方

    发表于 2024-4-2 14:17:12 | 显示全部楼层 |阅读模式


    ◎译  名 好逑双物语/H2: Kimi to itahibi
    ◎片  名 H2〜君といた日々
    ◎年  代 2005
    ◎产  地 日本
    ◎类  别 剧情 / 喜剧 / 爱情 / 运动
    ◎语  言 日语
    ◎上映日期 2005-01-13(日本)
    ◎IMDb评分  7.5/10 from 143 users
    ◎IMDb链接  https://www.imdb.com/title/tt0759951/
    ◎豆瓣评分 8.3/10 from 2471 users
    ◎豆瓣链接 https://movie.douban.com/subject/1768286/
    ◎集  数 11
    ◎片  长 46分钟
    ◎导  演 堤幸彦 Yukihiko Tsutsumi / 今井夏木 Natsuki Imai
    ◎编  剧 山崎淳也 Junya Yamasaki / 安达充 Mitsuru Adachi / 关惠理香 Erika Seki
    ◎主  演 山田孝之 Takayuki Yamada
           石原里美 Satomi Ishihara
           林刚史 Tsuyoshi Hayashi
           北条隆博 Takahiro Hojo
           石垣佑磨 Yuma Ishigaki
           石野真子 Mako Ishino
           菊里光 Hikaru Kikuzato
           柳泽奈奈 Nana Yanagisawa
           龙雷太 Raita Ryû
           佐藤惠 Megumi Satô
           田中幸太朗 Kotaro Tanaka
           野久保直树 Naoki Nokubo
           贯地谷栞 Shihori Kanjiya
           的场浩司 Koji Matoba
           七濑夏美 Natsumi Nanase
           杉本哲太 Tetta Sugimoto
           田丸麻纪 Maki Tamaru
           柳泽慎吾 Shingo Yanagisawa
           市川由衣 Yui Ichikawa
           中村伦也 Tomoya Nakamura
           中尾明庆 Akinobu Nakao
           森廉 Ren Mori
           佐藤二朗 Jirô Satô
           高桥良辅 Ryosuke Takahashi
           武野功雄 Isao Takeno

    ◎简  介

      因蒙古大夫的误诊,让棒球好手国见比吕(山田孝之 饰)放弃前往棒球名校的机会,从而和青梅竹马雨宫雅玲(市川由衣 饰)、橘英雄(田中幸太朗 饰)不在一个学校。事后得知真相的比吕只得和好友野田敦(中尾明庆 饰)自己组建棒球部。在棒球部里,比吕遇见了迷糊热心的同级生古贺春华(石原里美 饰),春华则成了棒球部的经理。棒球部成立的第一场友谊赛便是和英雄所在学校的比赛。对于英雄,比吕的感情很复杂,自己的青梅竹马雅玲因为自己的介绍成了英雄的女友,而比吕则一直喜欢着雅玲。一方是友谊,而另一方是爱情,这难解的题目加上春华的加入,成了四个人的爱情故事,借由棒球,诉说着青春的迷茫、感伤与无解。

    ◎获奖情况

      第44届日剧学院赏  (2005)
      最佳女配角(提名) 石原里美

    1. General
    2. Unique ID                      : 204986873366235219247830078379702057607 (0x9A370927B6BC5CDD338525CE1D3B7A87)
    3. Complete name                  : E:\BaiduNetdiskDownload\H2.君といた日々.2005.S01E04.1080p.U-NEXT.WEB-DL.mkv
    4. Format                         : Matroska
    5. Format version                 : Version 4
    6. File size                      : 1.37 GiB
    7. Duration                       : 46 min 51 s
    8. Overall bit rate               : 4 175 kb/s
    9. Frame rate                     : 29.970 FPS
    10. Movie name                     : 第4回 二度目の春…胸騒ぎの初デート
    11. Description                    : 比呂(山田孝之)は夏の甲子園大会予選に向けて、練習に励んでいた。千川野球部に入ってきた新入部員の大竹(弓削智久)と島(中村友也)は、比呂に怪しい行動を見せる…。
    12. Encoded date                   : 2024-03-31 06:03:02 UTC
    13. Writing application            : mkvmerge v68.0.0 ('The Curtain') 64-bit
    14. Writing library                : libebml v1.4.2 + libmatroska v1.6.4
    15. Cover                          : Yes
    16. Attachments                    : cover.png

    17. Video
    18. ID                             : 1
    19. Format                         : AVC
    20. Format/Info                    : Advanced Video Codec
    21. Format profile                 : Main@L4
    22. Format settings                : CABAC / 3 Ref Frames
    23. Format settings, CABAC         : Yes
    24. Format settings, Reference fra : 3 frames
    25. Codec ID                       : V_MPEG4/ISO/AVC
    26. Duration                       : 46 min 51 s
    27. Bit rate                       : 4 052 kb/s
    28. Width                          : 1 920 pixels
    29. Height                         : 1 080 pixels
    30. Display aspect ratio           : 16:9
    31. Frame rate mode                : Constant
    32. Frame rate                     : 29.970 (30000/1001) FPS
    33. Color space                    : YUV
    34. Chroma subsampling             : 4:2:0
    35. Bit depth                      : 8 bits
    36. Scan type                      : Progressive
    37. Bits/(Pixel*Frame)             : 0.065
    38. Stream size                    : 1.32 GiB (97%)
    39. Writing library                : x264 core 164
    40. Encoding settings              : cabac=1 / ref=3 / deblock=1:-1:-1 / analyse=0x1:0x111 / me=hex / subme=4 / psy=1 / psy_rd=1.00:0.15 / mixed_ref=0 / me_range=16 / chroma_me=1 / trellis=1 / 8x8dct=0 / cqm=0 / deadzone=21,11 / fast_pskip=1 / chroma_qp_offset=-1 / threads=12 / lookahead_threads=3 / sliced_threads=0 / nr=0 / decimate=1 / interlaced=0 / bluray_compat=0 / constrained_intra=0 / bframes=2 / b_pyramid=0 / b_adapt=2 / b_bias=0 / direct=3 / weightb=1 / open_gop=0 / weightp=1 / keyint=60 / keyint_min=31 / scenecut=0 / intra_refresh=0 / rc_lookahead=20 / rc=2pass / mbtree=1 / bitrate=4052 / ratetol=1.0 / qcomp=0.60 / qpmin=0 / qpmax=69 / qpstep=4 / cplxblur=20.0 / qblur=0.5 / vbv_maxrate=8050 / vbv_bufsize=8050 / nal_hrd=none / filler=0 / ip_ratio=1.40 / aq=1:1.00
    41. Default                        : Yes
    42. Forced                         : No

    43. Audio
    44. ID                             : 2
    45. Format                         : AAC LC
    46. Format/Info                    : Advanced Audio Codec Low Complexity
    47. Codec ID                       : A_AAC-2
    48. Duration                       : 46 min 51 s
    49. Bit rate                       : 128 kb/s
    50. Channel(s)                     : 2 channels
    51. Channel layout                 : L R
    52. Sampling rate                  : 48.0 kHz
    53. Frame rate                     : 46.875 FPS (1024 SPF)
    54. Compression mode               : Lossy
    55. Stream size                    : 42.9 MiB (3%)
    56. Language                       : Japanese
    57. Default                        : Yes
    58. Forced                         : No

    复制代码




    购买主题 已有 6 人购买  本主题需向作者支付 100 大洋 才能浏览
    回复

    使用道具 举报

  • TA的每日心情
    开心
    12 小时前
  • 签到天数: 843 天

    [LV.10]以坛为家III

    33

    主题

    6465

    帖子

    1775

    积分

    稀有影迷

    Rank: 12Rank: 12Rank: 12

    积分
    1775
    发表于 2024-4-2 16:54:43 | 显示全部楼层
    感谢分享。
    回复

    使用道具 举报

  • TA的每日心情
    开心
    前天 09:01
  • 签到天数: 111 天

    [LV.6]常住居民II

    0

    主题

    760

    帖子

    71

    积分

    中级影迷

    Rank: 3Rank: 3

    积分
    71
    发表于 2024-4-2 17:09:15 | 显示全部楼层
    谢谢分享!
    回复

    使用道具 举报

  • TA的每日心情
    开心
    7 天前
  • 签到天数: 677 天

    [LV.9]以坛为家II

    3

    主题

    1万

    帖子

    663

    积分

    专业影迷

    Rank: 8Rank: 8

    积分
    663
    发表于 2024-4-2 19:10:18 | 显示全部楼层
    感谢楼主,多谢分享好作品
    回复

    使用道具 举报

  • TA的每日心情
    开心
    19 小时前
  • 签到天数: 617 天

    [LV.9]以坛为家II

    0

    主题

    914

    帖子

    198

    积分

    高级影迷

    Rank: 4

    积分
    198
    发表于 2024-4-2 20:07:56 | 显示全部楼层
    感谢大大无私分享经典日剧资源
    回复

    使用道具 举报

  • TA的每日心情
    无聊
    16 小时前
  • 签到天数: 1107 天

    [LV.10]以坛为家III

    5

    主题

    4132

    帖子

    548

    积分

    专业影迷

    Rank: 8Rank: 8

    积分
    548
    发表于 2024-4-2 22:03:13 | 显示全部楼层
    感谢分享好评啊啊
    回复

    使用道具 举报

  • TA的每日心情
    开心
    21 小时前
  • 签到天数: 907 天

    [LV.10]以坛为家III

    15

    主题

    3999

    帖子

    556

    积分

    专业影迷

    Rank: 8Rank: 8

    积分
    556
    发表于 2024-4-2 23:40:02 | 显示全部楼层
    y,如果您要查看本帖隐藏内容请回复
    回复

    使用道具 举报

  • TA的每日心情
    擦汗
    2024-2-28 21:19
  • 签到天数: 252 天

    [LV.8]以坛为家I

    4

    主题

    3612

    帖子

    612

    积分

    专业影迷

    Rank: 8Rank: 8

    积分
    612
    发表于 2024-4-3 04:07:46 | 显示全部楼层
    感谢分享好资源
    回复

    使用道具 举报

  • TA的每日心情
    开心
    昨天 09:19
  • 签到天数: 861 天

    [LV.10]以坛为家III

    1

    主题

    5506

    帖子

    335

    积分

    超级影迷

    Rank: 6Rank: 6

    积分
    335
    发表于 2024-4-3 09:40:25 | 显示全部楼层
    感谢分享好资源!
    回复

    使用道具 举报

  • TA的每日心情
    开心
    12 分钟前
  • 签到天数: 1204 天

    [LV.10]以坛为家III

    3

    主题

    3291

    帖子

    573

    积分

    专业影迷

    Rank: 8Rank: 8

    积分
    573

    土豪勋章小土豪勋章

    发表于 2024-4-3 10:53:07 | 显示全部楼层
    感谢分享好评啊啊
    回复

    使用道具 举报

    您需要登录后才可以回帖 登录 | 立即注册

    本版积分规则

    QQ|Archiver|手机版|小黑屋|影迷乐园

    GMT+8, 2024-4-20 21:20 , Processed in 0.124336 second(s), 27 queries .

    Powered by Discuz! X3.4

    Copyright © 2001-2020, Tencent Cloud.

    快速回复 返回顶部 返回列表