请选择 进入手机版 | 继续访问电脑版

YMLY-影迷乐园-特效字幕 蓝光原盘 1080P 高清动漫电影电视剧

 找回密码
 立即注册
搜索
查看: 304|回复: 14

[日本] [百度][2007][1080P][贫穷贵公子][日语.外挂中文字幕][10集全][MKV][14.17GB][WEB-DL]

[复制链接]
  • TA的每日心情
    擦汗
    昨天 09:24
  • 签到天数: 1155 天

    [LV.10]以坛为家III

    241

    主题

    2767

    帖子

    6334

    积分

    史诗影迷

    Rank: 16Rank: 16Rank: 16Rank: 16

    积分
    6334

    土豪勋章小土豪勋章富甲一方

    发表于 2024-4-2 14:25:49 | 显示全部楼层 |阅读模式


    ◎译  名 贫穷贵公子/山田太郎物语
    ◎片  名 山田太郎ものがたり
    ◎年  代 2007
    ◎产  地 日本
    ◎类  别 喜剧
    ◎语  言 日语
    ◎上映日期 2007-07-06(日本)
    ◎IMDb评分  6.7/10 from 199 users
    ◎IMDb链接  https://www.imdb.com/title/tt1039941/
    ◎豆瓣评分 7.5/10 from 19039 users
    ◎豆瓣链接 https://movie.douban.com/subject/2121813/
    ◎集  数 10
    ◎片  长 54分钟
    ◎导  演 石井康晴 Yasuharu Ishii / 山室大辅 Daisuke Yamamuro
    ◎编  剧 儿岛雄一 Magy / 森永爱 Morinaga Ai
    ◎主  演 二宫和也 Kazunari Ninomiya
           樱井翔 Shô Sakurai
           多部未华子 Mikako Tabe
           忍成修吾 Shûgo Oshinari
           大塚千弘 Chihiro Ôtsuka
           菊池桃子 Momoko Kikuchi
           宇津井健 Ken Utsui
           吹石一惠 Kazue Fukiishi
           大野智 Satoshi Ohno
           小嶋阳菜 Haruna Kojima
           清水尚弥 Naoya Shimizu
           磨赤儿 Akaji Maro
           水川麻美 Asami Mizukawa
           西田尚美 Naomi Nishida
           桝木亚子 Ako Masuki
           尾形沙耶香 Sayaka Ogata
           吉川爱 Ai Yoshikawa
           桑代贵明 Takaaki Kuwashiro
           吉泽悠 Hisashi Yoshizawa
           枪田晟裕 Yurita Akihiro
           猫背椿 Tsubaki Nekoze

    ◎简  介

      山田太郎(二宫和也 饰),相貌英俊,品学兼优,笑容灿烂,为人和善。这样的他浑身都散发出一股贵族般的气息,令班上的女生为之倾倒。尤其是池上隆子(多部末华子 饰),这个做梦都想钓到金龟婿的的女孩,更是下定决心不泡到山田君誓不罢休。但是一次跟踪让隆子的美梦彻底的破碎了,原来山田太郎不仅不是有钱人,甚至连普通人都算不上,他住在自家搭建的违建里,还有六个和他一样穷的叮当响的弟妹!山田太郎的朋友御村托也(樱井翔 饰)倒是个贵公子,他十分喜欢山田太郎朴实的性格,也喜欢看班上的白痴女生被她们的幻觉耍得团团转的样子,因此,他希望隆子能够保守这个秘密,甚至不惜使出威逼利诱的手段。
      杉浦圭一(忍成修吾 饰)非常看不过山田太郎的完美作风,同时也对他的超高人气心怀妒忌。一次偶然的事件让他对山田太郎的真实身份产生了怀疑,但随着对他的了解,圭一悲剧的发现自己居然对同样是男性的山田

    ◎获奖情况

      第54届日剧学院赏  (2007)
      最佳男主角(提名) 二宫和也
      最佳女配角(提名) 多部未华子

    1. General
    2. Unique ID                      : 8928985332025272649528830206637906446 (0x6B7A8F73A45AA0AC515513724AA1A0E)
    3. Complete name                  : E:\BaiduNetdiskDownload\山田太郎ものがたり.2007.S01E01.1080.U-NEXT.WEB-DL.mkv
    4. Format                         : Matroska
    5. Format version                 : Version 4
    6. File size                      : 1.75 GiB
    7. Duration                       : 59 min 52 s
    8. Overall bit rate               : 4 178 kb/s
    9. Frame rate                     : 29.970 FPS
    10. Movie name                     : 第一話 麗しの王子様は…ケタはずれのド貧乏
    11. Encoded date                   : 2024-03-29 02:27:31 UTC
    12. Writing application            : mkvmerge v68.0.0 ('The Curtain') 64-bit
    13. Writing library                : libebml v1.4.2 + libmatroska v1.6.4
    14. Cover                          : Yes
    15. Attachments                    : cover.png

    16. Video
    17. ID                             : 1
    18. Format                         : AVC
    19. Format/Info                    : Advanced Video Codec
    20. Format profile                 : Main@L4
    21. Format settings                : CABAC / 3 Ref Frames
    22. Format settings, CABAC         : Yes
    23. Format settings, Reference fra : 3 frames
    24. Codec ID                       : V_MPEG4/ISO/AVC
    25. Duration                       : 59 min 51 s
    26. Bit rate                       : 4 052 kb/s
    27. Width                          : 1 920 pixels
    28. Height                         : 1 080 pixels
    29. Display aspect ratio           : 16:9
    30. Frame rate mode                : Constant
    31. Frame rate                     : 29.970 (30000/1001) FPS
    32. Color space                    : YUV
    33. Chroma subsampling             : 4:2:0
    34. Bit depth                      : 8 bits
    35. Scan type                      : Progressive
    36. Bits/(Pixel*Frame)             : 0.065
    37. Stream size                    : 1.69 GiB (97%)
    38. Writing library                : x264 core 164
    39. Encoding settings              : cabac=1 / ref=3 / deblock=1:-1:-1 / analyse=0x1:0x111 / me=hex / subme=4 / psy=1 / psy_rd=1.00:0.15 / mixed_ref=0 / me_range=16 / chroma_me=1 / trellis=1 / 8x8dct=0 / cqm=0 / deadzone=21,11 / fast_pskip=1 / chroma_qp_offset=-1 / threads=12 / lookahead_threads=3 / sliced_threads=0 / nr=0 / decimate=1 / interlaced=0 / bluray_compat=0 / constrained_intra=0 / bframes=2 / b_pyramid=0 / b_adapt=2 / b_bias=0 / direct=3 / weightb=1 / open_gop=0 / weightp=1 / keyint=60 / keyint_min=31 / scenecut=0 / intra_refresh=0 / rc_lookahead=20 / rc=2pass / mbtree=1 / bitrate=4052 / ratetol=1.0 / qcomp=0.60 / qpmin=0 / qpmax=69 / qpstep=4 / cplxblur=20.0 / qblur=0.5 / vbv_maxrate=8050 / vbv_bufsize=8050 / nal_hrd=none / filler=0 / ip_ratio=1.40 / aq=1:1.00
    40. Default                        : Yes
    41. Forced                         : No
    42. Color range                    : Limited
    43. Color primaries                : BT.709
    44. Transfer characteristics       : BT.709

    45. Audio
    46. ID                             : 2
    47. Format                         : AAC LC
    48. Format/Info                    : Advanced Audio Codec Low Complexity
    49. Codec ID                       : A_AAC-2
    50. Duration                       : 59 min 52 s
    51. Bit rate                       : 128 kb/s
    52. Channel(s)                     : 2 channels
    53. Channel layout                 : L R
    54. Sampling rate                  : 48.0 kHz
    55. Frame rate                     : 46.875 FPS (1024 SPF)
    56. Compression mode               : Lossy
    57. Stream size                    : 54.8 MiB (3%)
    58. Language                       : Japanese
    59. Default                        : Yes
    60. Forced                         : No

    复制代码




    购买主题 已有 4 人购买  本主题需向作者支付 100 大洋 才能浏览
    回复

    使用道具 举报

  • TA的每日心情
    开心
    昨天 10:50
  • 签到天数: 674 天

    [LV.9]以坛为家II

    4

    主题

    4092

    帖子

    765

    积分

    专业影迷

    Rank: 8Rank: 8

    积分
    765
    发表于 2024-4-2 16:15:34 | 显示全部楼层
    感谢楼主分享
    回复

    使用道具 举报

  • TA的每日心情
    开心
    昨天 12:36
  • 签到天数: 837 天

    [LV.10]以坛为家III

    33

    主题

    6435

    帖子

    1765

    积分

    稀有影迷

    Rank: 12Rank: 12Rank: 12

    积分
    1765
    发表于 2024-4-2 16:55:01 | 显示全部楼层
    感谢分享。
    回复

    使用道具 举报

  • TA的每日心情
    慵懒
    前天 08:36
  • 签到天数: 590 天

    [LV.9]以坛为家II

    7

    主题

    1952

    帖子

    259

    积分

    超级影迷

    Rank: 6Rank: 6

    积分
    259
    发表于 2024-4-2 17:25:30 | 显示全部楼层
    感谢分享!
    回复

    使用道具 举报

  • TA的每日心情
    开心
    昨天 18:08
  • 签到天数: 427 天

    [LV.9]以坛为家II

    0

    主题

    2233

    帖子

    547

    积分

    专业影迷

    Rank: 8Rank: 8

    积分
    547
    发表于 2024-4-2 17:39:13 | 显示全部楼层
    感谢分享资源!
    回复

    使用道具 举报

  • TA的每日心情
    开心
    前天 10:15
  • 签到天数: 677 天

    [LV.9]以坛为家II

    3

    主题

    1万

    帖子

    663

    积分

    专业影迷

    Rank: 8Rank: 8

    积分
    663
    发表于 2024-4-2 19:09:25 | 显示全部楼层
    感谢楼主,多谢分享好作品
    回复

    使用道具 举报

  • TA的每日心情
    开心
    11 分钟前
  • 签到天数: 612 天

    [LV.9]以坛为家II

    0

    主题

    905

    帖子

    195

    积分

    高级影迷

    Rank: 4

    积分
    195
    发表于 2024-4-2 20:08:18 | 显示全部楼层
    感谢大大无私分享经典日剧资源
    回复

    使用道具 举报

  • TA的每日心情
    无聊
    1 小时前
  • 签到天数: 1103 天

    [LV.10]以坛为家III

    5

    主题

    4113

    帖子

    543

    积分

    专业影迷

    Rank: 8Rank: 8

    积分
    543
    发表于 2024-4-2 22:02:50 | 显示全部楼层
    内容不错的日剧啊
    回复

    使用道具 举报

  • TA的每日心情
    开心
    2 小时前
  • 签到天数: 902 天

    [LV.10]以坛为家III

    15

    主题

    3993

    帖子

    555

    积分

    专业影迷

    Rank: 8Rank: 8

    积分
    555
    发表于 2024-4-2 23:38:14 | 显示全部楼层
    要查看本帖隐藏内容请回复
    回复

    使用道具 举报

  • TA的每日心情

    5 天前
  • 签到天数: 481 天

    [LV.9]以坛为家II

    1

    主题

    790

    帖子

    89

    积分

    中级影迷

    Rank: 3Rank: 3

    积分
    89
    发表于 2024-4-3 09:09:25 | 显示全部楼层
    感谢楼主分享
    回复

    使用道具 举报

    您需要登录后才可以回帖 登录 | 立即注册

    本版积分规则

    QQ|Archiver|手机版|小黑屋|影迷乐园

    GMT+8, 2024-4-15 02:06 , Processed in 0.096261 second(s), 27 queries .

    Powered by Discuz! X3.4

    Copyright © 2001-2020, Tencent Cloud.

    快速回复 返回顶部 返回列表