请选择 进入手机版 | 继续访问电脑版

YMLY-影迷乐园-特效字幕 蓝光原盘 1080P 高清动漫电影电视剧

 找回密码
 立即注册
搜索
查看: 276|回复: 15

[日本] [百度][2012][1080P][命运之人][日语.外挂中文字幕][10集全][MKV][15.63GB][WEB-DL]

[复制链接]
  • TA的每日心情
    擦汗
    昨天 09:24
  • 签到天数: 1155 天

    [LV.10]以坛为家III

    241

    主题

    2767

    帖子

    6334

    积分

    史诗影迷

    Rank: 16Rank: 16Rank: 16Rank: 16

    积分
    6334

    土豪勋章小土豪勋章富甲一方

    发表于 2024-4-2 14:43:48 | 显示全部楼层 |阅读模式


    ◎译  名 命运之人/Unmei no hito
    ◎片  名 運命の人
    ◎年  代 2012
    ◎产  地 日本
    ◎类  别 剧情
    ◎语  言 日语
    ◎上映日期 2012-01-15(日本)
    ◎IMDb评分  6.8/10 from 15 users
    ◎IMDb链接  https://www.imdb.com/title/tt2043720/
    ◎豆瓣评分 8.1/10 from 1673 users
    ◎豆瓣链接 https://movie.douban.com/subject/6810845/
    ◎集  数 10
    ◎片  长 45分钟
    ◎导  演 土井裕泰 Nobuhiro Doi / 吉田健 Takeshi Yoshida
    ◎编  剧 桥本裕志 Hiroshi Hashimoto / 山崎丰子 Toyoko Yamasaki
    ◎主  演 本木雅弘 Masahiro Motoki
           松隆子 Takako Matsu
           真木阳子 Yoko Maki
           大森南朋 Nao Omori
           长谷川博己 Hiroki Hasegawa
           原田泰造 Taizo Harada
           市川猿之助 Ennosuke Ichikawa IV
           柳叶敏郎 Toshirô Yanagiba
           吹越满 Mitsuru Fukikoshi
           石桥凌 Ryo Ishibashi
           桥爪功 Isao Hashizume
           柄本明 Akira Emoto
           北大路欣也 Kinya Kitaoji
           松重丰 Yutaka Matsushige
           远藤雄弥 Yuya Endo
           杉本哲太 Tetta Sugimoto
           绪方义博 Denden
           梶原善 Zen Kajiwara
           吉川爱 Ai Yoshikawa
           布施绘里 Eri Fuse
           小市慢太郎 Mantarô Koichi
           本田博太郎 Hirotarô Honda
           柴本幸 Yuki Shibamoto
           浅野和之 Kazuyuki Asano
           城户光晴 Mitsuharu Kido
           奥田达士 Tatsuhito Okuda
           绫田俊树 Toshiki Ayata
           三浦贵大 Takahiro Miura
           渊上泰史 Yasushi Fuchikami
           鹤见辰吾 Shingo Tsurumi
           美波 Minami
           森下能幸 Yoshiyuki Morishita
           山本圭 Kei Yamamoto
           石丸谦二郎 Kenjirô Ishimaru
           升毅 Takeshi Masu
           北村有起哉 Yukiya Kitamura
           斋藤步 Ayumu Saitô
           今井悠贵 Yuki Imai
           笹野高史 Takashi Sasano
           大和田伸也 Shin'ya Ôwada
           伊武雅刀 Masatô Ibu

    ◎简  介

      2012年TBS电视台冬季日九日剧,由本木雅弘主演,松隆子、真木阳子、大森南朋、长谷川博己、原田泰造、北大路欣也等豪华卡司共演,改编自山崎丰子的原作,作为TBS电视台的60周年台庆剧
      直到被逮捕的这一刻,明星记者弓成亮太才发现自己将那份关键电文交出去,实在是大错特错!这份文件与纠葛多年的日美冲绳归还谈判有关,当弓成在外务省女事务官三木昭子固定拿来的资料中,看到仅限外务省高层传阅的「极机密」电文时,敏锐的新闻直觉立刻告诉他,其中一定有不为人知的大内幕!经他明查暗访之下,发现政府竟然与美国偷偷签订了密约,这种欺骗人民的行迳令他无比愤慨!
      但是为了避免消息来源曝光,弓成的报导始终不敢写得太露骨,眼看引起的舆论回响有限,他乾脆心一横,将文件影本交给了新进议员,怎料议员在质询时居然一字不漏地念出内容,还高举着那份写有弓成笔迹的机密资料,完全暴露了弓成和三木的身.

    ◎获奖情况

      第72届日剧学院赏  (2012)
      最佳男主角(提名) 本木雅弘
      最佳女配角 真木阳子
      最佳女配角(提名) 松隆子

    1. General
    2. Unique ID                      : 114745450828566760903298651641189789177 (0x56532B835EAF2B94E40632950B706DF9)
    3. Complete name                  : E:\BaiduNetdiskDownload\運命の人.2012.S01E01.1080p.U-NEXT.WEB-DL.mkv
    4. Format                         : Matroska
    5. Format version                 : Version 4
    6. File size                      : 2.13 GiB
    7. Duration                       : 1 h 12 min
    8. Overall bit rate               : 4 186 kb/s
    9. Frame rate                     : 29.970 FPS
    10. Movie name                     : 第一話 疑惑の一夜
    11. Description                    : 沖縄返還の1年前。突然、毎朝新聞エース記者・弓成(本木雅弘)により、米国の基地の永続的使用を認める政府プランが一面に踊る。佐橋総理(北大路欣也)は激怒し…。
    12. Encoded date                   : 2024-03-01 16:22:10 UTC
    13. Writing application            : mkvmerge v68.0.0 ('The Curtain') 64-bit
    14. Writing library                : libebml v1.4.2 + libmatroska v1.6.4
    15. Cover                          : Yes
    16. Attachments                    : cover.png

    17. Video
    18. ID                             : 1
    19. Format                         : AVC
    20. Format/Info                    : Advanced Video Codec
    21. Format profile                 : Main@L4
    22. Format settings                : CABAC / 3 Ref Frames
    23. Format settings, CABAC         : Yes
    24. Format settings, Reference fra : 3 frames
    25. Codec ID                       : V_MPEG4/ISO/AVC
    26. Duration                       : 1 h 12 min
    27. Bit rate                       : 4 052 kb/s
    28. Width                          : 1 920 pixels
    29. Height                         : 1 080 pixels
    30. Display aspect ratio           : 16:9
    31. Frame rate mode                : Constant
    32. Frame rate                     : 29.970 (30000/1001) FPS
    33. Color space                    : YUV
    34. Chroma subsampling             : 4:2:0
    35. Bit depth                      : 8 bits
    36. Scan type                      : Progressive
    37. Bits/(Pixel*Frame)             : 0.065
    38. Stream size                    : 2.06 GiB (97%)
    39. Writing library                : x264 core 164
    40. Encoding settings              : cabac=1 / ref=3 / deblock=1:-1:-1 / analyse=0x1:0x111 / me=hex / subme=4 / psy=1 / psy_rd=1.00:0.15 / mixed_ref=0 / me_range=16 / chroma_me=1 / trellis=1 / 8x8dct=0 / cqm=0 / deadzone=21,11 / fast_pskip=1 / chroma_qp_offset=-1 / threads=12 / lookahead_threads=3 / sliced_threads=0 / nr=0 / decimate=1 / interlaced=0 / bluray_compat=0 / constrained_intra=0 / bframes=2 / b_pyramid=0 / b_adapt=2 / b_bias=0 / direct=3 / weightb=1 / open_gop=0 / weightp=1 / keyint=60 / keyint_min=31 / scenecut=0 / intra_refresh=0 / rc_lookahead=20 / rc=2pass / mbtree=1 / bitrate=4052 / ratetol=1.0 / qcomp=0.60 / qpmin=0 / qpmax=69 / qpstep=4 / cplxblur=20.0 / qblur=0.5 / vbv_maxrate=8050 / vbv_bufsize=8050 / nal_hrd=none / filler=0 / ip_ratio=1.40 / aq=1:1.00
    41. Default                        : Yes
    42. Forced                         : No
    43. Color range                    : Limited
    44. Color primaries                : BT.709
    45. Transfer characteristics       : BT.709

    46. Audio
    47. ID                             : 2
    48. Format                         : AAC LC
    49. Format/Info                    : Advanced Audio Codec Low Complexity
    50. Codec ID                       : A_AAC-2
    51. Duration                       : 1 h 12 min
    52. Bit rate                       : 128 kb/s
    53. Channel(s)                     : 2 channels
    54. Channel layout                 : L R
    55. Sampling rate                  : 48.0 kHz
    56. Frame rate                     : 46.875 FPS (1024 SPF)
    57. Compression mode               : Lossy
    58. Stream size                    : 66.7 MiB (3%)
    59. Language                       : Japanese
    60. Default                        : Yes
    61. Forced                         : No

    复制代码




    购买主题 已有 2 人购买  本主题需向作者支付 100 大洋 才能浏览
    回复

    使用道具 举报

  • TA的每日心情
    开心
    昨天 10:50
  • 签到天数: 674 天

    [LV.9]以坛为家II

    4

    主题

    4092

    帖子

    765

    积分

    专业影迷

    Rank: 8Rank: 8

    积分
    765
    发表于 2024-4-2 16:15:08 | 显示全部楼层
    感谢楼主分享
    回复

    使用道具 举报

  • TA的每日心情
    开心
    昨天 12:36
  • 签到天数: 837 天

    [LV.10]以坛为家III

    33

    主题

    6435

    帖子

    1765

    积分

    稀有影迷

    Rank: 12Rank: 12Rank: 12

    积分
    1765
    发表于 2024-4-2 16:55:17 | 显示全部楼层
    感谢分享。
    回复

    使用道具 举报

  • TA的每日心情
    慵懒
    前天 08:36
  • 签到天数: 590 天

    [LV.9]以坛为家II

    7

    主题

    1952

    帖子

    259

    积分

    超级影迷

    Rank: 6Rank: 6

    积分
    259
    发表于 2024-4-2 17:24:24 | 显示全部楼层
    感谢分享好电影!
    回复

    使用道具 举报

  • TA的每日心情
    开心
    昨天 18:08
  • 签到天数: 427 天

    [LV.9]以坛为家II

    0

    主题

    2233

    帖子

    547

    积分

    专业影迷

    Rank: 8Rank: 8

    积分
    547
    发表于 2024-4-2 17:38:34 | 显示全部楼层
    感谢分享资源!
    回复

    使用道具 举报

  • TA的每日心情
    开心
    前天 10:15
  • 签到天数: 677 天

    [LV.9]以坛为家II

    3

    主题

    1万

    帖子

    663

    积分

    专业影迷

    Rank: 8Rank: 8

    积分
    663
    发表于 2024-4-2 19:08:08 | 显示全部楼层
    感谢楼主,多谢分享好作品
    回复

    使用道具 举报

  • TA的每日心情
    开心
    半小时前
  • 签到天数: 612 天

    [LV.9]以坛为家II

    0

    主题

    905

    帖子

    195

    积分

    高级影迷

    Rank: 4

    积分
    195
    发表于 2024-4-2 20:08:42 | 显示全部楼层
    感谢大大无私分享经典日剧资源
    回复

    使用道具 举报

  • TA的每日心情
    开心
    昨天 19:59
  • 签到天数: 285 天

    [LV.8]以坛为家I

    0

    主题

    1585

    帖子

    249

    积分

    高级影迷

    Rank: 4

    积分
    249
    发表于 2024-4-2 20:15:27 | 显示全部楼层
    谢谢楼主分享!
    回复

    使用道具 举报

  • TA的每日心情
    无聊
    1 小时前
  • 签到天数: 1103 天

    [LV.10]以坛为家III

    5

    主题

    4113

    帖子

    543

    积分

    专业影迷

    Rank: 8Rank: 8

    积分
    543
    发表于 2024-4-2 22:02:11 | 显示全部楼层
    故事不错的啊看起来啊
    回复

    使用道具 举报

  • TA的每日心情
    开心
    2 小时前
  • 签到天数: 902 天

    [LV.10]以坛为家III

    15

    主题

    3993

    帖子

    555

    积分

    专业影迷

    Rank: 8Rank: 8

    积分
    555
    发表于 2024-4-2 23:35:42 | 显示全部楼层
    果您要查看本帖隐藏内容请回复
    回复

    使用道具 举报

    您需要登录后才可以回帖 登录 | 立即注册

    本版积分规则

    QQ|Archiver|手机版|小黑屋|影迷乐园

    GMT+8, 2024-4-15 02:30 , Processed in 0.185892 second(s), 27 queries .

    Powered by Discuz! X3.4

    Copyright © 2001-2020, Tencent Cloud.

    快速回复 返回顶部 返回列表