请选择 进入手机版 | 继续访问电脑版

YMLY-影迷乐园-特效字幕 蓝光原盘 1080P 高清动漫电影电视剧

 找回密码
 立即注册
搜索
查看: 402|回复: 22

[日本] [百度][2006][1080P][水手服与机关枪][日语.外挂中文字幕][7集全][MKV][9.74GB][WEB-DL]

[复制链接]
  • TA的每日心情
    擦汗
    11 小时前
  • 签到天数: 1161 天

    [LV.10]以坛为家III

    241

    主题

    2773

    帖子

    6438

    积分

    史诗影迷

    Rank: 16Rank: 16Rank: 16Rank: 16

    积分
    6438

    土豪勋章小土豪勋章富甲一方

    发表于 2024-4-2 14:52:05 | 显示全部楼层 |阅读模式


    ◎译  名 水手服与机关枪/Sailor fuku to kikanjuu
    ◎片  名 セーラー服と機関銃
    ◎年  代 2006
    ◎产  地 日本
    ◎类  别 剧情
    ◎语  言 日语
    ◎上映日期 2006-10-13(日本)
    ◎IMDb评分  6.6/10 from 438 users
    ◎IMDb链接  https://www.imdb.com/title/tt1027793/
    ◎豆瓣评分 6.5/10 from 1806 users
    ◎豆瓣链接 https://movie.douban.com/subject/2074653/
    ◎集  数 7
    ◎片  长 45分钟
    ◎导  演 平川雄一朗 Yuichiro Hirakawa / 加藤新 Shin Katô
    ◎编  剧 泉吉纮 Yoshihiro Izumi / 赤川次郎 Jirô Akagawa
    ◎主  演 长泽雅美 Masami Nagasawa
           堤真一 Shin'ichi Tsutsumi
           绪形拳 Ken Ogata
           山本龙二 Ryûji Yamamoto
           中尾明庆 Akinobu Nakao
           田口浩正 Hiromasa Taguchi
           森廉 Ren Mori
           本田博太郎 Hirotarô Honda
           小泉今日子 Kyôko Koizumi
           阿部亮平 Ryôhei Abe
           中野英雄 Hideo Nakano
           绀野真昼 Mahiru Konno

    ◎简  介

      原本过着平凡生活的女高中生星泉(长泽雅美 饰),突然得知了父亲车祸身亡的噩耗。当她还来不及悲伤之际,另一伙凶巴巴的人马找上门来。原来这些人是黑帮组织目高组的成员,他们的老大刚刚去世,生前留下遗言将组织传给星泉的爸爸。与星泉有过一面之缘的若头佐久间(堤真一 饰)大力推选女孩继承组织,而女孩却不愿为此耽误学业。另一方面,目高组的对手浜口组趁势扩张侵略,双方战火一触即发。星泉在此期间得知父亲可能死于黑帮头目之手,几经周折她同意出任目高组第八代组长。水手服与机关枪组合,一个少女黑帮头目的故事就此展开……
      本片根据赤川次郎的同名小说改编,此前曾先后被改编成电影和电视剧。。
    1. General
    2. Unique ID                      : 216126723236473593370769455930584809124 (0xA2987E288E70E82B9A250B4B4CFB3EA4)
    3. Complete name                  : E:\BaiduNetdiskDownload\セーラー服と機関銃.2006.S01E01.1080p.U-NEXT.WEB-DL.mkv
    4. Format                         : Matroska
    5. Format version                 : Version 4
    6. File size                      : 1.63 GiB
    7. Duration                       : 55 min 49 s
    8. Overall bit rate               : 4 180 kb/s
    9. Frame rate                     : 29.970 FPS
    10. Movie name                     : 第1話 女子高生組長誕生!!
    11. Encoded date                   : 2024-03-26 16:29:13 UTC
    12. Writing application            : mkvmerge v68.0.0 ('The Curtain') 64-bit
    13. Writing library                : libebml v1.4.2 + libmatroska v1.6.4
    14. Cover                          : Yes
    15. Attachments                    : cover.png

    16. Video
    17. ID                             : 1
    18. Format                         : AVC
    19. Format/Info                    : Advanced Video Codec
    20. Format profile                 : Main@L4
    21. Format settings                : CABAC / 3 Ref Frames
    22. Format settings, CABAC         : Yes
    23. Format settings, Reference fra : 3 frames
    24. Codec ID                       : V_MPEG4/ISO/AVC
    25. Duration                       : 55 min 49 s
    26. Bit rate                       : 4 052 kb/s
    27. Width                          : 1 920 pixels
    28. Height                         : 1 080 pixels
    29. Display aspect ratio           : 16:9
    30. Frame rate mode                : Constant
    31. Frame rate                     : 29.970 (30000/1001) FPS
    32. Color space                    : YUV
    33. Chroma subsampling             : 4:2:0
    34. Bit depth                      : 8 bits
    35. Scan type                      : Progressive
    36. Bits/(Pixel*Frame)             : 0.065
    37. Stream size                    : 1.58 GiB (97%)
    38. Writing library                : x264 core 164
    39. Encoding settings              : cabac=1 / ref=3 / deblock=1:-1:-1 / analyse=0x1:0x111 / me=hex / subme=4 / psy=1 / psy_rd=1.00:0.15 / mixed_ref=0 / me_range=16 / chroma_me=1 / trellis=1 / 8x8dct=0 / cqm=0 / deadzone=21,11 / fast_pskip=1 / chroma_qp_offset=-1 / threads=12 / lookahead_threads=3 / sliced_threads=0 / nr=0 / decimate=1 / interlaced=0 / bluray_compat=0 / constrained_intra=0 / bframes=2 / b_pyramid=0 / b_adapt=2 / b_bias=0 / direct=3 / weightb=1 / open_gop=0 / weightp=1 / keyint=60 / keyint_min=31 / scenecut=0 / intra_refresh=0 / rc_lookahead=20 / rc=2pass / mbtree=1 / bitrate=4052 / ratetol=1.0 / qcomp=0.60 / qpmin=0 / qpmax=69 / qpstep=4 / cplxblur=20.0 / qblur=0.5 / vbv_maxrate=8050 / vbv_bufsize=8050 / nal_hrd=none / filler=0 / ip_ratio=1.40 / aq=1:1.00
    40. Default                        : Yes
    41. Forced                         : No

    42. Audio
    43. ID                             : 2
    44. Format                         : AAC LC
    45. Format/Info                    : Advanced Audio Codec Low Complexity
    46. Codec ID                       : A_AAC-2
    47. Duration                       : 55 min 49 s
    48. Bit rate                       : 128 kb/s
    49. Channel(s)                     : 2 channels
    50. Channel layout                 : L R
    51. Sampling rate                  : 48.0 kHz
    52. Frame rate                     : 46.875 FPS (1024 SPF)
    53. Compression mode               : Lossy
    54. Stream size                    : 51.1 MiB (3%)
    55. Language                       : Japanese
    56. Default                        : Yes
    57. Forced                         : No

    复制代码







    购买主题 已有 7 人购买  本主题需向作者支付 100 大洋 才能浏览
    回复

    使用道具 举报

  • TA的每日心情
    开心
    21 小时前
  • 签到天数: 998 天

    [LV.10]以坛为家III

    3

    主题

    6817

    帖子

    1157

    积分

    资深影迷

    Rank: 10Rank: 10Rank: 10

    积分
    1157

    小土豪勋章土豪勋章

    发表于 2024-4-2 16:35:16 | 显示全部楼层
    谢谢分享         
    回复

    使用道具 举报

  • TA的每日心情
    开心
    13 小时前
  • 签到天数: 843 天

    [LV.10]以坛为家III

    33

    主题

    6465

    帖子

    1775

    积分

    稀有影迷

    Rank: 12Rank: 12Rank: 12

    积分
    1775
    发表于 2024-4-2 16:55:33 | 显示全部楼层
    感谢分享。
    回复

    使用道具 举报

  • TA的每日心情
    开心
    7 天前
  • 签到天数: 677 天

    [LV.9]以坛为家II

    3

    主题

    1万

    帖子

    663

    积分

    专业影迷

    Rank: 8Rank: 8

    积分
    663
    发表于 2024-4-2 19:06:49 | 显示全部楼层
    感谢楼主,多谢分享好作品
    回复

    使用道具 举报

  • TA的每日心情
    无聊
    17 小时前
  • 签到天数: 1107 天

    [LV.10]以坛为家III

    5

    主题

    4135

    帖子

    549

    积分

    专业影迷

    Rank: 8Rank: 8

    积分
    549
    发表于 2024-4-2 22:01:42 | 显示全部楼层
    感谢非常有意思的啊
    回复

    使用道具 举报

  • TA的每日心情
    开心
    20 小时前
  • 签到天数: 617 天

    [LV.9]以坛为家II

    0

    主题

    914

    帖子

    198

    积分

    高级影迷

    Rank: 4

    积分
    198
    发表于 2024-4-3 00:08:15 | 显示全部楼层
    感谢大大无私分享经典日剧资源

    点评

    多谢大佬分享  详情 回复 发表于 2024-4-7 13:31
    回复

    使用道具 举报

  • TA的每日心情
    擦汗
    2024-2-28 21:19
  • 签到天数: 252 天

    [LV.8]以坛为家I

    4

    主题

    3612

    帖子

    612

    积分

    专业影迷

    Rank: 8Rank: 8

    积分
    612
    发表于 2024-4-3 04:07:13 | 显示全部楼层
    谢谢分享好资源
    回复

    使用道具 举报

  • TA的每日心情
    开心
    昨天 09:19
  • 签到天数: 861 天

    [LV.10]以坛为家III

    1

    主题

    5506

    帖子

    335

    积分

    超级影迷

    Rank: 6Rank: 6

    积分
    335
    发表于 2024-4-3 09:45:06 | 显示全部楼层
    感谢分享好资源!
    回复

    使用道具 举报

  • TA的每日心情
    开心
    2024-2-6 09:28
  • 签到天数: 2 天

    [LV.1]初来乍到

    0

    主题

    53

    帖子

    13

    积分

    入门影迷

    Rank: 1

    积分
    13
    发表于 2024-4-3 10:06:54 | 显示全部楼层
    谢谢分享   

    点评

    谢谢分享好资源  详情 回复 发表于 3 天前
    感谢分享好资源!  详情 回复 发表于 5 天前
    回复

    使用道具 举报

  • TA的每日心情
    开心
    13 分钟前
  • 签到天数: 1117 天

    [LV.10]以坛为家III

    0

    主题

    1341

    帖子

    141

    积分

    中级影迷

    Rank: 3Rank: 3

    积分
    141
    发表于 2024-4-3 10:11:39 | 显示全部楼层
    感谢楼主 谢谢分享
    回复

    使用道具 举报

    您需要登录后才可以回帖 登录 | 立即注册

    本版积分规则

    QQ|Archiver|手机版|小黑屋|影迷乐园

    GMT+8, 2024-4-20 22:33 , Processed in 0.090975 second(s), 28 queries .

    Powered by Discuz! X3.4

    Copyright © 2001-2020, Tencent Cloud.

    快速回复 返回顶部 返回列表