请选择 进入手机版 | 继续访问电脑版

YMLY-影迷乐园-特效字幕 蓝光原盘 1080P 高清动漫电影电视剧

 找回密码
 立即注册
搜索
查看: 1081|回复: 66

[日本] [115][1976][1080p][红的冲击][中日双语无字幕][29集全][山口百惠 三浦友和][MKV][126.6GB]

  [复制链接]
  • TA的每日心情
    奋斗
    8 小时前
  • 签到天数: 1242 天

    [LV.10]以坛为家III

    240

    主题

    2892

    帖子

    8716

    积分

    影迷皇帝

    Rank: 20Rank: 20Rank: 20Rank: 20Rank: 20

    积分
    8716

    土豪勋章小土豪勋章富甲一方

    发表于 2024-6-4 14:23:33 | 显示全部楼层 |阅读模式


    ◎译  名 红的冲击
    ◎片  名 赤い衝撃
    ◎年  代 1976
    ◎产  地 日本
    ◎类  别 剧情
    ◎语  言 日语
    ◎上映日期 1976-11-05(日本)
    ◎IMDb评分  6.4/10 from 7 users
    ◎IMDb链接  https://www.imdb.com/title/tt0327264/
    ◎豆瓣评分 8.4/10 from 230 users
    ◎豆瓣链接 https://movie.douban.com/subject/4310159/
    ◎集  数 25
    ◎片  长 40分钟
    ◎导  演 降旗康男 Yasuo Furuhata / 增村保造 Yasuzo Masumura
    ◎主  演 山口百惠 Momoe Yamaguchi
           三浦友和 Tomokazu Miura
           中条静夫 Shizuo Chûjô
           田村高广 Takahiro Tamura
           草笛光子 Mitsuko Kusabue
           原知佐子 Chisako Hara
           南田洋子 Yôko Minamida
           长门裕之 Hiroyuki Nagato
           名古屋章 Akira Nagoya
           谷隼人 Hayato Tani
           大坂志郎 Shirô Osaka
           岸惠子 Keiko Kishi
           中岛久之 Hisayuki Nakajima
           宇津井健 Ken Utsui

    ◎简  介

       一个由日本“大映”电视公司和日本TBS电视台联手拍摄。由日本著名演员中条静夫代替宇津井健出演山口百惠的父亲一角,成为该剧的一大亮点。草笛光子与田村高广也都有出色的表演,让人过目不忘。
      山口百慧,优秀的短跑运动员。她父亲是实业大亨,发迹史不太光彩。三蒲友和一直在调查他。
      三蒲友和,年轻干练不仅帅而且酷的警察。某次办案不慎误伤山口百慧,致使她下肢瘫痪。故事就此展开……
      其实三蒲友和是山口百慧父亲的儿子,但是他们俩的恋情并没有被埋葬,因为最后的真相是山口百慧其实并不是他父亲的亲生女儿

    1. General
    2. Complete name                  : D:\Backup\Downloads\115download\红的冲击19(日语).mp4
    3. Format                         : MPEG-4
    4. Format profile                 : Base Media
    5. Codec ID                       : isom (isom/iso2/mp41)
    6. File size                      : 2.76 GiB
    7. Duration                       : 47 min 9 s
    8. Overall bit rate               : 8 393 kb/s
    9. Frame rate                     : 29.970 FPS
    10. Writing application            : Lavf60.4.100

    11. Video
    12. ID                             : 1
    13. Format                         : HEVC
    14. Format/Info                    : High Efficiency Video Coding
    15. Format profile                 : Main@L4@Main
    16. Codec ID                       : hev1
    17. Codec ID/Info                  : High Efficiency Video Coding
    18. Duration                       : 47 min 9 s
    19. Bit rate                       : 8 259 kb/s
    20. Width                          : 1 440 pixels
    21. Height                         : 1 080 pixels
    22. Display aspect ratio           : 16:9
    23. Frame rate mode                : Constant
    24. Frame rate                     : 29.970 (30000/1001) FPS
    25. Color space                    : YUV
    26. Chroma subsampling             : 4:2:0
    27. Bit depth                      : 8 bits
    28. Scan type                      : Interlaced
    29. Scan type, store method        : Interleaved fields
    30. Scan order                     : Top Field First
    31. Bits/(Pixel*Frame)             : 0.177
    32. Stream size                    : 2.72 GiB (98%)
    33. Color range                    : Limited
    34. Color primaries                : BT.709
    35. Transfer characteristics       : BT.709
    36. Matrix coefficients            : BT.709
    37. Codec configuration box        : hvcC

    38. Audio
    39. ID                             : 2
    40. Format                         : AAC LC
    41. Format/Info                    : Advanced Audio Codec Low Complexity
    42. Codec ID                       : mp4a-40-2
    43. Duration                       : 47 min 8 s
    44. Source duration                : 47 min 8 s
    45. Source_Duration_LastFrame      : -10 ms
    46. Bit rate mode                  : Constant
    47. Bit rate                       : 128 kb/s
    48. Channel(s)                     : 2 channels
    49. Channel layout                 : L R
    50. Sampling rate                  : 44.1 kHz
    51. Frame rate                     : 43.066 FPS (1024 SPF)
    52. Compression mode               : Lossy
    53. Stream size                    : 43.1 MiB (2%)
    54. Source stream size             : 43.1 MiB (2%)
    55. Default                        : Yes
    56. Alternate group                : 1

    复制代码





    购买主题 已有 11 人购买  本主题需向作者支付 288 大洋 才能浏览
    回复

    使用道具 举报

  • TA的每日心情
    开心
    6 小时前
  • 签到天数: 1151 天

    [LV.10]以坛为家III

    3

    主题

    1828

    帖子

    952

    积分

    资深影迷

    Rank: 10Rank: 10Rank: 10

    积分
    952
    发表于 2024-6-4 15:33:34 | 显示全部楼层
    感谢分享!
    回复

    使用道具 举报

  • TA的每日心情
    奋斗
    昨天 11:31
  • 签到天数: 1183 天

    [LV.10]以坛为家III

    0

    主题

    7942

    帖子

    757

    积分

    专业影迷

    Rank: 8Rank: 8

    积分
    757
    发表于 2024-6-4 17:13:42 | 显示全部楼层
    谢谢楼主分享
    回复

    使用道具 举报

  • TA的每日心情
    开心
    4 小时前
  • 签到天数: 36 天

    [LV.5]常住居民I

    1

    主题

    243

    帖子

    99

    积分

    中级影迷

    Rank: 3Rank: 3

    积分
    99
    发表于 2024-6-4 18:56:24 | 显示全部楼层
    感谢分享!!!!!!
    回复

    使用道具 举报

  • TA的每日心情
    开心
    昨天 12:52
  • 签到天数: 540 天

    [LV.9]以坛为家II

    0

    主题

    427

    帖子

    23

    积分

    入门影迷

    Rank: 1

    积分
    23
    发表于 2024-6-4 19:31:09 | 显示全部楼层
    感谢帮主分享,真的很棒,加油!!!
    啊啊啊啊
    回复

    使用道具 举报

  • TA的每日心情
    开心
    4 天前
  • 签到天数: 734 天

    [LV.9]以坛为家II

    3

    主题

    1万

    帖子

    688

    积分

    专业影迷

    Rank: 8Rank: 8

    积分
    688
    发表于 2024-6-4 21:20:08 | 显示全部楼层
    感谢楼主,多谢分享好作品
    回复

    使用道具 举报

  • TA的每日心情
    开心
    昨天 22:59
  • 签到天数: 481 天

    [LV.9]以坛为家II

    1

    主题

    1798

    帖子

    294

    积分

    超级影迷

    Rank: 6Rank: 6

    积分
    294
    发表于 2024-6-4 22:06:21 | 显示全部楼层
    真是太好了。
    回复

    使用道具 举报

  • TA的每日心情
    开心
    昨天 08:14
  • 签到天数: 613 天

    [LV.9]以坛为家II

    26

    主题

    1539

    帖子

    3646

    积分

    传奇影迷

    Rank: 14Rank: 14Rank: 14Rank: 14

    积分
    3646

    土豪勋章小土豪勋章

    发表于 2024-6-4 23:29:53 | 显示全部楼层
    谢谢分享好片
    回复

    使用道具 举报

  • TA的每日心情
    开心
    昨天 21:56
  • 签到天数: 35 天

    [LV.5]常住居民I

    0

    主题

    205

    帖子

    32

    积分

    初级影迷

    Rank: 2

    积分
    32
    发表于 2024-6-4 23:45:34 | 显示全部楼层
    看起来很不错哦,收藏之~~~
    谢谢LZ啦!!!
    回复

    使用道具 举报

  • TA的每日心情
    开心
    15 小时前
  • 签到天数: 793 天

    [LV.10]以坛为家III

    0

    主题

    5221

    帖子

    1296

    积分

    资深影迷

    Rank: 10Rank: 10Rank: 10

    积分
    1296
    发表于 2024-6-5 00:10:26 | 显示全部楼层
    感谢楼主分享资源
    回复

    使用道具 举报

    您需要登录后才可以回帖 登录 | 立即注册

    本版积分规则

    QQ|Archiver|手机版|小黑屋|影迷乐园

    GMT+8, 2024-7-22 17:27 , Processed in 0.087047 second(s), 27 queries .

    Powered by Discuz! X3.4

    Copyright © 2001-2020, Tencent Cloud.

    快速回复 返回顶部 返回列表