请选择 进入手机版 | 继续访问电脑版

YMLY-影迷乐园-特效字幕 蓝光原盘 1080P 高清动漫电影电视剧

 找回密码
 立即注册
搜索
查看: 948|回复: 33

[香港] [115][1992][1080P][92钟无艳][陈松伶 郑伊健 曾航生][20集全][粤语 简繁中字][MKV][24.38GB]

[复制链接]
  • TA的每日心情
    奋斗
    7 小时前
  • 签到天数: 1242 天

    [LV.10]以坛为家III

    240

    主题

    2892

    帖子

    8716

    积分

    影迷皇帝

    Rank: 20Rank: 20Rank: 20Rank: 20Rank: 20

    积分
    8716

    土豪勋章小土豪勋章富甲一方

    发表于 2024-6-6 09:56:11 | 显示全部楼层 |阅读模式


    ◎译  名 92钟无艳/The Mark of Triump
    ◎片  名 92鈡無艷
    ◎年  代 1992
    ◎产  地 中国香港
    ◎类  别 爱情
    ◎语  言 粤语
    ◎上映日期 1992(中国香港)
    ◎豆瓣评分 7.3/10 from 867 users
    ◎豆瓣链接 https://movie.douban.com/subject/2303263/
    ◎集  数 20
    ◎片  长 45
    ◎导  演 萧光汉 Guanghan Xiao
    ◎编  剧 黄翠华 Tsui-wah Wong
    ◎主  演 陈松伶 Adia Chan
           郑伊健 Ekin Cheng
           曾航生 Sam Tsang
           林其欣 Ki Yan Lam
           许绍雄 Siu-Hung Hui
           关宝慧 Emily Kwan
           陈佩珊 Joanna Chan Pui-San
           刘江 Kong Lau
           柳影红 Ying-Hung Lau
           雷宇扬 Simon Lui
           鲍方 Fong Pau
           颜国梁 Johnny Ngan
           关菁 Kwan Ching
           凌汉 Hon Ling
           冯瑞珍 Sui Chun Fung
           戴少民 Siu Man Tai
           黎秀英 Sau-Ying Lai
           王伟梁 Wai-Leung Wong
           曾慧云 Shally Tsang Wai Wan
           孙季卿 Kwai-Hing Suen
           谢月美 Yuet Mei Tse
           苏恩磁 Ceci So Yan Chee
           邓汝超 Yu-Chiu Tang
           黄文标 Man-Piu Wong
           陈中坚 Chung Kin Chan
           黄凤琼 Fung-King Wong
           梁爱 Oi Leung
           朱承彩 Shing-Choi Chu
           胡美仪 Amy Hu
           黄一山 Gabriel Wong
           叶振声 Ip Chun Sing
           王维德 Wai Tak Wong
           刘桂芳 Kitty Lau Kwai Fong
           白兰 Lan Pai
           古巨基 Leo Ku
           虞天伟 Tin Wai Yu
           河国荣 Gregory Charles Rivers
           陈有后 Yau Hau Chan
           陈荣峻 Wing Chun Chan
           邹静 Jing Zou
           陈珮珊 Chan Pui-San
           何英伟 Ying-Wai Ho

    ◎简  介

      李爱(陈松伶 饰)虽然温柔可人心地善良,却因为丑陋的外貌而遭到了男友的抛弃,心灰意冷的李爱决定结束自己的生命,然而不仅没有死成,还在治疗之余进行了整容手术,意外获得了绝美的容颜。之后,李爱借住在钟仁美(林其欣 饰)家中,和名为晋杰(郑伊健 饰)的男子成为了邻居。
      星探卓朗生(曾航生 饰)在李爱的身上看到了商机,将其包装成为了广告明星,没想到李爱一炮而红。与此同时,李爱和晋杰之间碰撞出了爱的火花,却遭到了卓朗生的从中破坏。一对有情人在误会之中分道扬镳。幸运的是,李爱很快就发现了卓朗生卑鄙的面目,果断的离开了他,却也因此失去了事业。

    1. General
    2. Unique ID                      : 250615555426649664569139374899646603480 (0xBC8ACCDEA94D541BFD95B88A0D4EA0D8)
    3. Complete name                  : D:\Backup\Downloads\115download\The.Mark.of.Triumph.1992.S01E01.1080p.MyTVS.WEB-DL.H265.AAC-YingWEB.mkv
    4. Format                         : Matroska
    5. Format version                 : Version 4
    6. File size                      : 1.22 GiB
    7. Duration                       : 44 min 33 s
    8. Overall bit rate               : 3 912 kb/s
    9. Frame rate                     : 25.000 FPS
    10. Encoded date                   : 2023-08-11 04:41:20 UTC
    11. Writing application            : mkvmerge v74.0.0 ('You Oughta Know') 64-bit
    12. Writing library                : libebml v1.4.4 + libmatroska v1.7.1

    13. Video
    14. ID                             : 1
    15. Format                         : HEVC
    16. Format/Info                    : High Efficiency Video Coding
    17. Format profile                 : Main@L4@Main
    18. Codec ID                       : V_MPEGH/ISO/HEVC
    19. Duration                       : 44 min 33 s
    20. Bit rate                       : 3 782 kb/s
    21. Width                          : 1 920 pixels
    22. Height                         : 1 080 pixels
    23. Display aspect ratio           : 16:9
    24. Frame rate mode                : Constant
    25. Frame rate                     : 25.000 FPS
    26. Color space                    : YUV
    27. Chroma subsampling             : 4:2:0
    28. Bit depth                      : 8 bits
    29. Bits/(Pixel*Frame)             : 0.073
    30. Stream size                    : 1.18 GiB (97%)
    31. Writing library                : VOLOHEVC
    32. Default                        : Yes
    33. Forced                         : No

    34. Audio
    35. ID                             : 2
    36. Format                         : AAC LC
    37. Format/Info                    : Advanced Audio Codec Low Complexity
    38. Codec ID                       : A_AAC-2
    39. Duration                       : 44 min 33 s
    40. Bit rate                       : 128 kb/s
    41. Channel(s)                     : 2 channels
    42. Channel layout                 : L R
    43. Sampling rate                  : 48.0 kHz
    44. Frame rate                     : 46.875 FPS (1024 SPF)
    45. Compression mode               : Lossy
    46. Stream size                    : 40.8 MiB (3%)
    47. Title                          : Cantonese
    48. Language                       : Chinese (Traditional)
    49. Default                        : Yes
    50. Forced                         : No

    51. Text #1
    52. ID                             : 3
    53. Format                         : UTF-8
    54. Codec ID                       : S_TEXT/UTF8
    55. Codec ID/Info                  : UTF-8 Plain Text
    56. Duration                       : 40 min 33 s
    57. Bit rate                       : 72 b/s
    58. Frame rate                     : 0.308 FPS
    59. Count of elements              : 749
    60. Stream size                    : 21.6 KiB (0%)
    61. Title                          : 中文(简体)
    62. Language                       : Chinese (Simplified)
    63. Default                        : Yes
    64. Forced                         : No

    65. Text #2
    66. ID                             : 4
    67. Format                         : UTF-8
    68. Codec ID                       : S_TEXT/UTF8
    69. Codec ID/Info                  : UTF-8 Plain Text
    70. Duration                       : 40 min 33 s
    71. Bit rate                       : 72 b/s
    72. Frame rate                     : 0.308 FPS
    73. Count of elements              : 749
    74. Stream size                    : 21.6 KiB (0%)
    75. Title                          : 中文(繁體)
    76. Language                       : Chinese (Traditional)
    77. Default                        : No
    78. Forced                         : No

    复制代码



    购买主题 本主题需向作者支付 288 大洋 才能浏览
    回复

    使用道具 举报

  • TA的每日心情
    开心
    7 小时前
  • 签到天数: 937 天

    [LV.10]以坛为家III

    1

    主题

    5978

    帖子

    369

    积分

    超级影迷

    Rank: 6Rank: 6

    积分
    369
    发表于 2024-6-6 09:56:55 | 显示全部楼层
    感谢分享好资源!
    回复

    使用道具 举报

  • TA的每日心情
    开心
    2 小时前
  • 签到天数: 598 天

    [LV.9]以坛为家II

    4

    主题

    912

    帖子

    65

    积分

    初级影迷

    Rank: 2

    积分
    65
    发表于 2024-6-6 13:31:23 | 显示全部楼层
    感谢楼主分享
    回复

    使用道具 举报

  • TA的每日心情
    开心
    3 小时前
  • 签到天数: 36 天

    [LV.5]常住居民I

    1

    主题

    243

    帖子

    99

    积分

    中级影迷

    Rank: 3Rank: 3

    积分
    99
    发表于 2024-6-6 15:04:57 | 显示全部楼层
    感谢楼主分享
    回复

    使用道具 举报

  • TA的每日心情
    开心
    15 小时前
  • 签到天数: 766 天

    [LV.10]以坛为家III

    4

    主题

    4471

    帖子

    876

    积分

    资深影迷

    Rank: 10Rank: 10Rank: 10

    积分
    876
    发表于 2024-6-6 17:02:11 | 显示全部楼层
    感谢楼主分享
    回复

    使用道具 举报

  • TA的每日心情
    无聊
    6 小时前
  • 签到天数: 1272 天

    [LV.10]以坛为家III

    1

    主题

    5586

    帖子

    685

    积分

    专业影迷

    Rank: 8Rank: 8

    积分
    685
    发表于 2024-6-6 17:36:42 | 显示全部楼层
    感谢楼主分享
    回复

    使用道具 举报

  • TA的每日心情
    奋斗
    昨天 11:31
  • 签到天数: 1183 天

    [LV.10]以坛为家III

    0

    主题

    7942

    帖子

    757

    积分

    专业影迷

    Rank: 8Rank: 8

    积分
    757
    发表于 2024-6-6 17:39:26 | 显示全部楼层

    感谢楼主分享
    回复

    使用道具 举报

  • TA的每日心情
    开心
    昨天 17:36
  • 签到天数: 930 天

    [LV.10]以坛为家III

    33

    主题

    6907

    帖子

    1943

    积分

    稀有影迷

    Rank: 12Rank: 12Rank: 12

    积分
    1943
    发表于 2024-6-6 18:41:51 | 显示全部楼层
    感谢分享。

    点评

    感谢分享好资源!  详情 回复 发表于 2024-7-4 15:03
    回复

    使用道具 举报

  • TA的每日心情
    开心
    5 小时前
  • 签到天数: 869 天

    [LV.10]以坛为家III

    0

    主题

    1673

    帖子

    355

    积分

    超级影迷

    Rank: 6Rank: 6

    积分
    355
    发表于 2024-6-6 18:50:17 | 显示全部楼层

    感谢分享好资源!
    回复

    使用道具 举报

  • TA的每日心情
    开心
    4 天前
  • 签到天数: 734 天

    [LV.9]以坛为家II

    3

    主题

    1万

    帖子

    687

    积分

    专业影迷

    Rank: 8Rank: 8

    积分
    687
    发表于 2024-6-6 21:00:08 | 显示全部楼层
    感谢楼主,多谢分享好作品
    回复

    使用道具 举报

    您需要登录后才可以回帖 登录 | 立即注册

    本版积分规则

    QQ|Archiver|手机版|小黑屋|影迷乐园

    GMT+8, 2024-7-22 16:21 , Processed in 0.098116 second(s), 31 queries .

    Powered by Discuz! X3.4

    Copyright © 2001-2020, Tencent Cloud.

    快速回复 返回顶部 返回列表