请选择 进入手机版 | 继续访问电脑版

YMLY-影迷乐园-特效字幕 蓝光原盘 1080P 高清动漫电影电视剧

 找回密码
 立即注册
搜索
查看: 894|回复: 44

[香港] [115][1984][1080P][魔域桃源][刘德华 赵雅芝 吴启华][20集全][粤语 无中字][mkv][23.22GB]

[复制链接]
  • TA的每日心情
    奋斗
    8 小时前
  • 签到天数: 1242 天

    [LV.10]以坛为家III

    240

    主题

    2892

    帖子

    8716

    积分

    影迷皇帝

    Rank: 20Rank: 20Rank: 20Rank: 20Rank: 20

    积分
    8716

    土豪勋章小土豪勋章富甲一方

    发表于 2024-6-6 10:13:30 | 显示全部楼层 |阅读模式


    ◎译  名 The Other Side Of The Horizon
    ◎片  名 魔域桃源
    ◎年  代 1984
    ◎产  地 中国香港
    ◎类  别 武侠
    ◎语  言 普通话/国语,粤语
    ◎上映日期 1984
    ◎豆瓣评分 7.9/10 from 1377 users
    ◎豆瓣链接 https://movie.douban.com/subject/2295757/
    ◎集  数 20
    ◎编  剧 薛家华 Ka Wah Sit
    ◎主  演 刘德华 Andy Lau
           赵雅芝 Angie Chiu
           吴启华 Lawrence Ng
           周秀兰 Elaine Chow Sau-Laan
           上官玉 Yuk Seung-Goon
           张英才 Ying Choi Cheung
           陈狄克 Ti-ko Chen
           梁珊 Shan Leung
           冯国 Kwok Fung
           博君 Bok-Kwan Ng
           吴镇宇 Francis Ng
           朱铁和 Tiet Wo Chu
           孙季卿 Kwai-Hing Suen
           刘青云 Sean Lau
           欧阳震华 Bobbie Au-Yeung
           杨泽霖 Chak Lam Yeung
           吕有慧 Yau-wai Lui
           黄韵材 Wan Choi Wong
           刘淑仪 Suk-yee Lau
           石坚 Kien Shih
           陶大宇 Michael Tao

    ◎简  介

      傅青云(刘德华 饰)和慕容白(吴启华 饰)是武当派弟子,在师父无尘子的命令下,两人来到魔域想要替武林铲除后患,但很快,傅青云便发现魔域实则是一片充满了平静和安宁的世外桃源,对武林根本没有威胁,不仅如此,他还邂逅了魔域首领傅千山(石坚 饰)的女儿唐琪(赵雅芝 饰),坠入了情网,起了留在魔域生活的念头。
      然而慕容白却一心想要完成使命,不惜在魔域众人同各派武林人士之间挑拨离间,最终引发大战,魔域不复存在,唐琪亦下落不明。慕容白和无尘子为了争夺掌门之位争得你死我活,虽然傅青云出手相救,却还是未能挽回无尘子的性命,临死前,无尘子告诉了傅青云一个惊人的秘密,那就是傅青云竟然是傅千山的儿子。

    1. General
    2. Unique ID                      : 152044950955773403772288101450687966856 (0x7262CADA52F7B1DC5C6F363E8FF7EE88)
    3. Complete name                  : D:\Backup\Downloads\115download\The.Other.Side.Of.Horizon.S01E03.1984.1080p.MyTVSuper.WEB-DL.H265.AAC-HHWEB.mkv
    4. Format                         : Matroska
    5. Format version                 : Version 4
    6. File size                      : 1.18 GiB
    7. Duration                       : 43 min 7 s
    8. Overall bit rate               : 3 923 kb/s
    9. Frame rate                     : 25.000 FPS
    10. Encoded date                   : 2023-12-10 04:04:49 UTC
    11. Writing application            : mkvmerge v69.0.0 ('Day And Age') 64-bit
    12. Writing library                : libebml v1.4.2 + libmatroska v1.6.4

    13. Video
    14. ID                             : 1
    15. Format                         : HEVC
    16. Format/Info                    : High Efficiency Video Coding
    17. Format profile                 : Main@L4@Main
    18. Codec ID                       : V_MPEGH/ISO/HEVC
    19. Duration                       : 43 min 7 s
    20. Bit rate                       : 3 793 kb/s
    21. Width                          : 1 920 pixels
    22. Height                         : 1 080 pixels
    23. Display aspect ratio           : 16:9
    24. Frame rate mode                : Constant
    25. Frame rate                     : 25.000 FPS
    26. Color space                    : YUV
    27. Chroma subsampling             : 4:2:0
    28. Bit depth                      : 8 bits
    29. Bits/(Pixel*Frame)             : 0.073
    30. Stream size                    : 1.14 GiB (97%)
    31. Writing library                : VOLOHEVC
    32. Default                        : Yes
    33. Forced                         : No

    34. Audio
    35. ID                             : 2
    36. Format                         : AAC LC
    37. Format/Info                    : Advanced Audio Codec Low Complexity
    38. Codec ID                       : A_AAC-2
    39. Duration                       : 43 min 7 s
    40. Bit rate                       : 128 kb/s
    41. Channel(s)                     : 2 channels
    42. Channel layout                 : L R
    43. Sampling rate                  : 48.0 kHz
    44. Frame rate                     : 46.875 FPS (1024 SPF)
    45. Compression mode               : Lossy
    46. Stream size                    : 39.5 MiB (3%)
    47. Default                        : No
    48. Forced                         : No

    复制代码




    购买主题 本主题需向作者支付 288 大洋 才能浏览
    回复

    使用道具 举报

  • TA的每日心情

    3 小时前
  • 签到天数: 772 天

    [LV.10]以坛为家III

    10

    主题

    5796

    帖子

    601

    积分

    专业影迷

    Rank: 8Rank: 8

    积分
    601
    发表于 2024-6-6 12:02:44 | 显示全部楼层
    感谢分享~~~!
    回复

    使用道具 举报

    该用户从未签到

    0

    主题

    193

    帖子

    45

    积分

    初级影迷

    Rank: 2

    积分
    45
    发表于 2024-6-6 12:21:51 | 显示全部楼层
    感谢你的分享 可以上传到百度云吗? 谢谢
    回复

    使用道具 举报

  • TA的每日心情
    开心
    4 小时前
  • 签到天数: 598 天

    [LV.9]以坛为家II

    4

    主题

    912

    帖子

    65

    积分

    初级影迷

    Rank: 2

    积分
    65
    发表于 2024-6-6 13:30:54 | 显示全部楼层
    感谢楼主分享
    回复

    使用道具 举报

  • TA的每日心情
    开心
    17 小时前
  • 签到天数: 766 天

    [LV.10]以坛为家III

    4

    主题

    4471

    帖子

    876

    积分

    资深影迷

    Rank: 10Rank: 10Rank: 10

    积分
    876
    发表于 2024-6-6 17:01:25 | 显示全部楼层
    感谢楼主分享
    回复

    使用道具 举报

  • TA的每日心情
    开心
    昨天 12:52
  • 签到天数: 540 天

    [LV.9]以坛为家II

    0

    主题

    427

    帖子

    23

    积分

    入门影迷

    Rank: 1

    积分
    23
    发表于 2024-6-6 17:27:49 | 显示全部楼层
    感谢帮主分享,真的很棒,加油!!!
    啊啊啊啊
    回复

    使用道具 举报

  • TA的每日心情
    奋斗
    昨天 11:31
  • 签到天数: 1183 天

    [LV.10]以坛为家III

    0

    主题

    7942

    帖子

    757

    积分

    专业影迷

    Rank: 8Rank: 8

    积分
    757
    发表于 2024-6-6 17:37:20 | 显示全部楼层

    感谢楼主分享
    回复

    使用道具 举报

  • TA的每日心情
    开心
    2023-12-24 08:34
  • 签到天数: 1 天

    [LV.1]初来乍到

    0

    主题

    1837

    帖子

    150

    积分

    高级影迷

    Rank: 4

    积分
    150
    发表于 2024-6-6 17:43:09 | 显示全部楼层
    看看那个年代电影是什么情况。
    回复

    使用道具 举报

  • TA的每日心情
    开心
    半小时前
  • 签到天数: 931 天

    [LV.10]以坛为家III

    33

    主题

    6908

    帖子

    1945

    积分

    稀有影迷

    Rank: 12Rank: 12Rank: 12

    积分
    1945
    发表于 2024-6-6 18:42:08 | 显示全部楼层
    感谢分享。
    回复

    使用道具 举报

  • TA的每日心情
    开心
    7 小时前
  • 签到天数: 869 天

    [LV.10]以坛为家III

    0

    主题

    1673

    帖子

    355

    积分

    超级影迷

    Rank: 6Rank: 6

    积分
    355
    发表于 2024-6-6 18:50:38 | 显示全部楼层

    感谢分享~~~!
    回复

    使用道具 举报

    您需要登录后才可以回帖 登录 | 立即注册

    本版积分规则

    QQ|Archiver|手机版|小黑屋|影迷乐园

    GMT+8, 2024-7-22 17:26 , Processed in 0.101864 second(s), 27 queries .

    Powered by Discuz! X3.4

    Copyright © 2001-2020, Tencent Cloud.

    快速回复 返回顶部 返回列表