请选择 进入手机版 | 继续访问电脑版

YMLY-影迷乐园-特效字幕 蓝光原盘 1080P 高清动漫电影电视剧

 找回密码
 立即注册
搜索
查看: 3224|回复: 21

[日本] [磁力+百度][1999][1080P][数码宝贝][1-54话全][国日双语中字][18.12GB][MKV][Digimon,Digital.Monsters.EP01-54.1999.1080p.WEB-DL.x264.AAC.2Audios-HQC]

[复制链接]
  • TA的每日心情
    无聊
    2019-4-24 08:53
  • 签到天数: 33 天

    [LV.5]常住居民I

    80

    主题

    128

    帖子

    722

    积分

    版主

    Rank: 8Rank: 8

    积分
    722

    贵族勋章水瓶座勋章

    发表于 2018-10-31 10:04:16 | 显示全部楼层 |阅读模式






    ◎译  名 数码宝贝 / Digimon / Digimon: Digital Monsters / 数码暴龙
    ◎片  名 デジモンアドベンチャー
    ◎年  代 1999
    ◎产  地 日本
    ◎类  别 动作 / 动画 / 惊悚 / 家庭 / 奇幻 / 冒险
    ◎语  言 日语
    ◎上映日期 1999-03-07(日本)
    ◎IMDb评分 7.3/10 from 18061 users
    ◎IMDb链接 http://www.imdb.com/title/tt0210418
    ◎豆瓣评分 9.0/10 from 37461 users
    ◎豆瓣链接 https://movie.douban.com/subject/1970134/
    ◎集  数 54
    ◎片  长 30分钟
    ◎导  演 角銅博之 Hiroyuki Kakudo
    ◎编  剧 Akiyoshi Hongo
    ◎主  演 藤田淑子 Toshiko Fujita
          風間勇刀 Yuto Kazama
          水谷优子 Yûko Mizutani
          天神有海 Umi Tenjin
          前田爱 Ai Maeda
          菊池正美 Masami Kikuchi
          小西寛子
          荒木香惠 Kae Araki
          坂本千夏 Chika Sakamoto
          山口眞弓
          重松花鳥
          樱井孝宏 Takahiro Sakurai
          溝脇しほみ Shihomi Mizowaki
          竹内顺子 Junko Takeuchi
          松本美和 Miwa Matsumoto
          德光由禾 Yuka Tokumitsu


    ◎标  签 动画 | 日本 | 童年 | 日本动画 | 童年回忆 | 数码宝贝 | 动漫 | 数码暴龙

    ◎简  介  

      1999年,由于数码世界资料异常增生,导致数码世界和现实世界的连接发生紊乱。地球上相应地出现奇怪的自然现象:东南亚没有下雨,池塘全部干涸;中东却因为连场大雨发生洪水;美国则遇到有史以来最寒冷的冬天。
    11岁的少年八神太一(藤田淑子 配音),和伙伴石田大和(风间勇刀 配音)、武之内空(水谷优子 配音)、泉光子郎(天神有海 配音)、太刀川美美(前田爱 配音)、城户丈(菊池正美 配音)、高石武(小西寛子 配音)一起参加了夏令营,一次意外却被神秘地送到了一个多彩的数码世界。在那里,他们得到了叫做“数码宝贝”的搭档。进入数码世界后,八神太一一行人遇到了凶恶的怪兽贝壳兽,眼看大家都要被抓住的时候,太一的亚古兽忽然进化成为暴龙兽,拯救了他们。进化到底是怎么回事情?数码世界究竟是什么?无数的谜团出现在被召选的小朋友们面前,精彩的冒险就这样开始了……
    1. General
    2. Unique ID                      : 240772117192221282002349945287620655053 (0xB52305E51FAEF740B01996CA577B77CD)
    3. Format                         : Matroska
    4. Format version                 : Version 4
    5. File size                      : 329 MiB
    6. Duration                       : 23 min 5 s
    7. Overall bit rate               : 1 994 kb/s
    8. Encoded date                   : UTC 2018-10-23 15:34:46
    9. Writing application            : mkvmerge v8.3.0 ('Over the Horizon') 64bit
    10. Writing library                : libebml v1.3.1 + libmatroska v1.4.2

    11. Video
    12. ID                             : 1
    13. Format                         : AVC
    14. Format/Info                    : Advanced Video Codec
    15. Format profile                 : High@L4
    16. Format settings                : CABAC / 3 Ref Frames
    17. Format settings, CABAC         : Yes
    18. Format settings, Reference fra : 3 frames
    19. Codec ID                       : V_MPEG4/ISO/AVC
    20. Duration                       : 23 min 5 s
    21. Bit rate                       : 1 738 kb/s
    22. Width                          : 1 440 pixels
    23. Height                         : 1 072 pixels
    24. Display aspect ratio           : 4:3
    25. Frame rate mode                : Constant
    26. Frame rate                     : 19.993 FPS
    27. Original frame rate            : 20.000 FPS
    28. Color space                    : YUV
    29. Chroma subsampling             : 4:2:0
    30. Bit depth                      : 8 bits
    31. Scan type                      : Progressive
    32. Bits/(Pixel*Frame)             : 0.056
    33. Stream size                    : 287 MiB (87%)
    34. Default                        : Yes
    35. Forced                         : No
    36. Color range                    : Limited
    37. Color primaries                : BT.709
    38. Transfer characteristics       : BT.709
    39. Matrix coefficients            : BT.709

    40. Audio #1
    41. ID                             : 2
    42. Format                         : AAC LC
    43. Format/Info                    : Advanced Audio Codec Low Complexity
    44. Codec ID                       : A_AAC-2
    45. Duration                       : 23 min 5 s
    46. Bit rate                       : 192 kb/s
    47. Channel(s)                     : 2 channels
    48. Channel layout                 : L R
    49. Sampling rate                  : 44.1 kHz
    50. Frame rate                     : 43.066 FPS (1024 SPF)
    51. Compression mode               : Lossy
    52. Delay relative to video        : -100 ms
    53. Stream size                    : 31.3 MiB (10%)
    54. Language                       : Japanese
    55. Default                        : Yes
    56. Forced                         : No

    57. Audio #2
    58. ID                             : 3
    59. Format                         : AAC LC SBR
    60. Format/Info                    : Advanced Audio Codec Low Complexity with Spectral Band Replication
    61. Commercial name                : HE-AAC
    62. Format settings                : Explicit
    63. Codec ID                       : A_AAC-2
    64. Duration                       : 23 min 5 s
    65. Bit rate                       : 64.0 kb/s
    66. Channel(s)                     : 2 channels
    67. Channel layout                 : L R
    68. Sampling rate                  : 44.1 kHz
    69. Frame rate                     : 21.533 FPS (2048 SPF)
    70. Compression mode               : Lossy
    71. Delay relative to video        : -100 ms
    72. Stream size                    : 10.6 MiB (3%)
    73. Language                       : Chinese
    74. Default                        : No
    75. Forced                         : No
    复制代码








    购买主题 已有 15 人购买  本主题需向作者支付 20 大洋 才能浏览
    回复

    使用道具 举报

  • TA的每日心情
    开心
    10 小时前
  • 签到天数: 525 天

    [LV.9]以坛为家II

    2

    主题

    3428

    帖子

    463

    积分

    专业影迷

    Rank: 8Rank: 8

    积分
    463
    发表于 2018-11-16 08:48:59 | 显示全部楼层
    多谢楼主分享
    回复

    使用道具 举报

  • TA的每日心情
    开心
    2018-4-16 13:56
  • 签到天数: 1 天

    [LV.1]初来乍到

    0

    主题

    21

    帖子

    13

    积分

    入门影迷

    Rank: 1

    积分
    13
    发表于 2018-12-31 13:53:45 | 显示全部楼层
    多谢大佬分享
    回复

    使用道具 举报

  • TA的每日心情
    开心
    11 小时前
  • 签到天数: 551 天

    [LV.9]以坛为家II

    27

    主题

    790

    帖子

    246

    积分

    高级影迷

    Rank: 4

    积分
    246
    发表于 2018-12-31 15:50:29 | 显示全部楼层
    感谢分享111111
    回复

    使用道具 举报

  • TA的每日心情
    擦汗
    2020-3-17 00:34
  • 签到天数: 251 天

    [LV.8]以坛为家I

    89

    主题

    985

    帖子

    636

    积分

    专业影迷

    Rank: 8Rank: 8

    积分
    636
    发表于 2019-1-10 13:54:09 | 显示全部楼层
    多谢楼主分享
    回复

    使用道具 举报

  • TA的每日心情
    郁闷
    2020-12-27 19:24
  • 签到天数: 41 天

    [LV.5]常住居民I

    0

    主题

    263

    帖子

    25

    积分

    初级影迷

    Rank: 2

    积分
    25

    影迷男神

    发表于 2019-11-22 23:42:51 | 显示全部楼层
    我草 这资源 牛逼
    回复

    使用道具 举报

  • TA的每日心情
    开心
    2020-10-17 18:28
  • 签到天数: 196 天

    [LV.7]常住居民III

    0

    主题

    1324

    帖子

    277

    积分

    超级影迷

    Rank: 6Rank: 6

    积分
    277
    发表于 2019-11-24 16:05:51 | 显示全部楼层
    多谢分享精彩影片
    回复

    使用道具 举报

  • TA的每日心情
    无聊
    2020-7-18 01:47
  • 签到天数: 38 天

    [LV.5]常住居民I

    0

    主题

    94

    帖子

    5

    积分

    入门影迷

    Rank: 1

    积分
    5
    发表于 2020-4-10 12:58:03 | 显示全部楼层
    那些被选中的孩子,还是这第一部最经典
    回复

    使用道具 举报

  • TA的每日心情
    开心
    2021-2-7 21:12
  • 签到天数: 54 天

    [LV.5]常住居民I

    0

    主题

    1499

    帖子

    143

    积分

    中级影迷

    Rank: 3Rank: 3

    积分
    143
    发表于 2020-4-13 07:42:27 | 显示全部楼层
    谢谢谢谢分享
    回复

    使用道具 举报

  • TA的每日心情
    开心
    2020-9-20 15:47
  • 签到天数: 10 天

    [LV.3]偶尔看看II

    0

    主题

    175

    帖子

    235

    积分

    高级影迷

    Rank: 4

    积分
    235
    发表于 2020-5-11 14:16:22 | 显示全部楼层
    谢谢分享~~~
    回复

    使用道具 举报

    您需要登录后才可以回帖 登录 | 立即注册

    本版积分规则

    QQ|Archiver|手机版|小黑屋|影迷乐园

    GMT+8, 2021-2-27 20:01 , Processed in 0.100021 second(s), 28 queries .

    Powered by Discuz! X3.4

    Copyright © 2001-2020, Tencent Cloud.

    快速回复 返回顶部 返回列表