请选择 进入手机版 | 继续访问电脑版

YMLY-影迷乐园-特效字幕 蓝光原盘 1080P 高清动漫电影电视剧

 找回密码
 立即注册
搜索
查看: 356|回复: 3

[国产] [百度][2001][DVD5~10][大唐情史][国语中字][唐国强.沈傲君][ISO][40.72GB]

[复制链接]
  • TA的每日心情
    奋斗
    2020-3-1 21:46
  • 签到天数: 446 天

    [LV.9]以坛为家II

    2702

    主题

    3220

    帖子

    9535

    积分

    影迷皇帝

    Rank: 20Rank: 20Rank: 20Rank: 20Rank: 20

    积分
    9535

    贵族勋章土豪勋章小土豪勋章主题达人百分百好孩子内测勋章最佳新人影迷女神十二生肖之猪水瓶座勋章富甲一方

    发表于 2019-4-3 11:49:52 | 显示全部楼层 |阅读模式


    ◎片  名 大唐情史
    ◎年  代 2002
    ◎产  地 中国大陆
    ◎类  别 爱情 / 古装
    ◎语  言 汉语普通话
    ◎上映日期 2002-02-12(中国大陆)
    ◎豆瓣评分 8.0/10 from 3606 users
    ◎豆瓣链接 https://movie.douban.com/subject/2240641/
    ◎集  数 30
    ◎片  长 45分钟
    ◎导  演 龚若飞 Ruofei Gong
    ◎编  剧 杨捷
    ◎主  演 唐国强 Guoqiang Tang
          沈傲君 Aojun Shen
          潘粤明 Yueming Pan
          聂远 Yuan Nie
          张彤 Tong Zhang
          潘泰名 Tai-ming Pan
          秦岚 Lan Qin
          强子 Zi Qiang
          颜丹晨 Danchen Yan
          岳跃利 Yueli Yue
          霍亚明 Yaming Huo
          徐少华 Shaohua Xu
          韩振华 Zhenhua Han
          印小天 Xiaotian Yin
          马可 Ke Ma


    ◎标  签 国产电视剧 | 古装 | 电视剧 | 历史 | 沈傲君 | 看过的电视剧 | 华语标签 | 爱情

    ◎简  介  

      玄武门之变后,登基的李世民(唐国强 饰)开始贞观之治,他任人为贤、知人善用,造就了一批卓越的政治英才。但人非圣贤,由于疏于对儿女的管教,太子承乾、魏王泰骄奢淫逸,晋王则勾搭宠妃武媚娘(秦岚 饰),致使长孙皇后(赵倩 饰)带着失望愤然离世。吴王恪(潘耀武 饰)虽得李世民恩宠,却因其母是隋炀帝女儿遭众大臣诛伐。高阳公主(沈傲君 饰)从小受父皇钟爱,伹到了谈婚论嫁年龄却爱上远离权力中心的吴王恪和浄土寺的辩机和尚,令父皇有苦难言,最终,她被许配给了丞相房玄龄做了儿媳。面对父皇把自己当做权力交易的筹码,高阳公主深恶痛绝、心如死灰。最终,她冲破封建礼教束缚,投向了心仪的辩机怀抱......
    1. General
    2. Format                         : MPEG-PS
    3. File size                      : 1 024 MiB
    4. Duration                       : 33 min 10 s
    5. Overall bit rate mode          : Variable
    6. Overall bit rate               : 4 315 kb/s

    7. Video
    8. ID                             : 224 (0xE0)
    9. Format                         : MPEG Video
    10. Format version                 : Version 2
    11. Format profile                 : Main@Main
    12. Format settings, BVOP          : Yes
    13. Format settings, Matrix        : Custom
    14. Format settings, GOP           : M=2, N=14
    15. Format settings, picture struc : Frame
    16. Duration                       : 33 min 10 s
    17. Bit rate mode                  : Variable
    18. Bit rate                       : 3 845 kb/s
    19. Maximum bit rate               : 5 000 kb/s
    20. Width                          : 720 pixels
    21. Height                         : 576 pixels
    22. Display aspect ratio           : 4:3
    23. Frame rate                     : 25.000 FPS
    24. Standard                       : PAL
    25. Color space                    : YUV
    26. Chroma subsampling             : 4:2:0
    27. Bit depth                      : 8 bits
    28. Scan type                      : Interlaced
    29. Scan order                     : Top Field First
    30. Compression mode               : Lossy
    31. Bits/(Pixel*Frame)             : 0.371
    32. Time code of first frame       : 00:01:51;08
    33. Time code source               : Group of pictures header
    34. GOP, Open/Closed               : Open
    35. GOP, Open/Closed of first fram : Closed
    36. Stream size                    : 912 MiB (89%)

    37. Audio
    38. ID                             : 189 (0xBD)-128 (0x80)
    39. Format                         : AC-3
    40. Format/Info                    : Audio Coding 3
    41. Format settings, Endianness    : Big
    42. Muxing mode                    : DVD-Video
    43. Duration                       : 33 min 9 s
    44. Bit rate mode                  : Constant
    45. Bit rate                       : 384 kb/s
    46. Channel(s)                     : 6 channels
    47. Channel positions              : Front: L C R, Side: L R, LFE
    48. Sampling rate                  : 48.0 kHz
    49. Frame rate                     : 31.250 FPS (1536 spf)
    50. Bit depth                      : 16 bits
    51. Compression mode               : Lossy
    52. Stream size                    : 91.1 MiB (9%)
    53. Service kind                   : Complete Main

    54. Menu
    复制代码



    购买主题 已有 3 人购买  本主题需向作者支付 30 大洋 才能浏览
    回复

    使用道具 举报

  • TA的每日心情
    开心
    2019-9-2 22:00
  • 签到天数: 1 天

    [LV.1]初来乍到

    0

    主题

    45

    帖子

    32

    积分

    初级影迷

    Rank: 2

    积分
    32
    发表于 2019-9-2 21:40:13 | 显示全部楼层
    谢谢分享谢谢分享谢谢分享
    回复

    使用道具 举报

  • TA的每日心情
    开心
    2020-2-23 12:40
  • 签到天数: 15 天

    [LV.4]偶尔看看III

    3

    主题

    29

    帖子

    5

    积分

    入门影迷

    Rank: 1

    积分
    5
    发表于 2019-10-12 01:36:55 | 显示全部楼层

    谢谢分享谢谢分享谢谢分享
    回复

    使用道具 举报

  • TA的每日心情
    开心
    2019-11-18 21:53
  • 签到天数: 2 天

    [LV.1]初来乍到

    0

    主题

    7

    帖子

    18

    积分

    入门影迷

    Rank: 1

    积分
    18
    发表于 2019-11-18 21:55:49 | 显示全部楼层
    感谢分享……
    回复

    使用道具 举报

    您需要登录后才可以回帖 登录 | 立即注册

    本版积分规则

    QQ|Archiver|手机版|小黑屋|影迷乐园  

    GMT+8, 2020-4-4 05:17 , Processed in 0.139497 second(s), 30 queries .

    Powered by Discuz! X3.3

    © 2001-2017 Comsenz Inc.

    快速回复 返回顶部 返回列表