请选择 进入手机版 | 继续访问电脑版

YMLY-影迷乐园-特效字幕 蓝光原盘 1080P 高清动漫电影电视剧

 找回密码
 立即注册
搜索
查看: 443|回复: 0

[香港] [百度][2004][DVD5~10][楚汉骄雄][国粤双语中字][江华.郑少秋][ISO][40.83GB]

[复制链接]
  • TA的每日心情
    奋斗
    2020-2-21 00:36
  • 签到天数: 656 天

    [LV.9]以坛为家II

    5326

    主题

    6536

    帖子

    1万

    积分

    超级版主

    Rank: 16Rank: 16Rank: 16Rank: 16

    积分
    18567

    内测勋章最佳新人十二生肖之猴VIP包月勋章影迷男神小土豪勋章土豪勋章富甲一方精华勋章金话筒主题达人灌水之王

    发表于 2019-4-16 03:39:31 | 显示全部楼层 |阅读模式

    ◎译  名 楚汉骄雄 / Chor hong gil hung / The Conqueror's Story
    ◎片  名 楚漢驕雄
    ◎年  代 2004
    ◎产  地 香港
    ◎类  别 剧情 / 历史 / 古装
    ◎语  言 粤语
    ◎上映日期 2004
    ◎IMDb评分 7.0/10 from 13 users
    ◎IMDb链接 http://www.imdb.com/title/tt1247478
    ◎豆瓣评分 7.7/10 from 3688 users
    ◎豆瓣链接 https://movie.douban.com/subject/2342526/
    ◎集  数 30
    ◎片  长 45分钟
    ◎导  演 李添胜
    ◎编  剧 梁咏梅 / 张华标
    ◎主  演 江华
          郑少秋
          张可颐
          吴美珩
          黎耀祥
          林韦辰
          蒋志光
          姚莹莹
          汤盈盈
          陈鸿烈


    ◎标  签 TVB | 港剧 | 郑少秋 | 电视剧 | 江华 | 看过的电视剧 | 张可颐 | 古装

    ◎简  介  

      秦朝末年,苛捐杂税重如山,民不聊生。富家千金吕雉(张可颐 饰)虽为女儿身,却胸怀大志,女扮男装外出寻找有志之士。她发现了时任泗水亭长刘邦(郑少秋 饰)宅心仁厚,对他渐渐生出好感。项羽(江华 饰)密谋起义,为了招揽黥面贼英布,单枪匹马闯入秦军军中将英布的仇人将领赵常斩杀,终于将英布收到帐下。刘邦发现了项羽的秘密。项羽本来想杀他灭口,但刘邦却对他表现得十分敬畏,哭诉了暴秦令人民生活凄苦,因此愿为他效力推翻暴君。于是项羽被感动了,决定招揽他,两人更以兄弟相称。随后,吕雉主动嫁给了刘邦,她知道自己将会辅助刘邦成就大业。
    秦始皇病逝,赵高扶立秦二世,秦二世荒淫无度,更引得天下大乱,群雄并起。项羽时势造英雄,终于揭竿起义了!
    1. General
    2. Format                         : MPEG-PS
    3. File size                      : 1 024 MiB
    4. Duration                       : 34 min 14 s
    5. Overall bit rate mode          : Variable
    6. Overall bit rate               : 4 181 kb/s

    7. Video
    8. ID                             : 224 (0xE0)
    9. Format                         : MPEG Video
    10. Format version                 : Version 2
    11. Format profile                 : Main@Main
    12. Format settings, BVOP          : Yes
    13. Format settings, Matrix        : Custom
    14. Format settings, GOP           : Variable
    15. Format settings, picture struc : Frame
    16. Duration                       : 34 min 14 s
    17. Bit rate mode                  : Variable
    18. Bit rate                       : 3 714 kb/s
    19. Maximum bit rate               : 4 600 kb/s
    20. Width                          : 720 pixels
    21. Height                         : 576 pixels
    22. Display aspect ratio           : 4:3
    23. Frame rate                     : 25.000 FPS
    24. Standard                       : PAL
    25. Color space                    : YUV
    26. Chroma subsampling             : 4:2:0
    27. Bit depth                      : 8 bits
    28. Scan type                      : Interlaced
    29. Scan order                     : Top Field First
    30. Compression mode               : Lossy
    31. Bits/(Pixel*Frame)             : 0.358
    32. Time code of first frame       : 00:02:19:16
    33. Time code source               : Group of pictures header
    34. GOP, Open/Closed               : Open
    35. GOP, Open/Closed of first fram : Closed
    36. Stream size                    : 909 MiB (89%)

    37. Audio #1
    38. ID                             : 189 (0xBD)-128 (0x80)
    39. Format                         : AC-3
    40. Format/Info                    : Audio Coding 3
    41. Format settings, Endianness    : Big
    42. Muxing mode                    : DVD-Video
    43. Duration                       : 34 min 13 s
    44. Bit rate mode                  : Constant
    45. Bit rate                       : 192 kb/s
    46. Channel(s)                     : 2 channels
    47. Channel positions              : Front: L R
    48. Sampling rate                  : 48.0 kHz
    49. Frame rate                     : 31.250 FPS (1536 spf)
    50. Bit depth                      : 16 bits
    51. Compression mode               : Lossy
    52. Stream size                    : 47.0 MiB (5%)
    53. Service kind                   : Complete Main

    54. Audio #2
    55. ID                             : 189 (0xBD)-129 (0x81)
    56. Format                         : AC-3
    57. Format/Info                    : Audio Coding 3
    58. Format settings, Endianness    : Big
    59. Muxing mode                    : DVD-Video
    60. Duration                       : 34 min 13 s
    61. Bit rate mode                  : Constant
    62. Bit rate                       : 192 kb/s
    63. Channel(s)                     : 2 channels
    64. Channel positions              : Front: L R
    65. Sampling rate                  : 48.0 kHz
    66. Frame rate                     : 31.250 FPS (1536 spf)
    67. Bit depth                      : 16 bits
    68. Compression mode               : Lossy
    69. Stream size                    : 47.0 MiB (5%)
    70. Service kind                   : Complete Main

    71. Text #1
    72. ID                             : 189 (0xBD)-32 (0x20)
    73. Format                         : RLE
    74. Format/Info                    : Run-length encoding
    75. Muxing mode                    : DVD-Video
    76. Duration                       : 34 min 10 s
    77. Delay relative to video        : 2 s 120 ms

    78. Text #2
    79. ID                             : 189 (0xBD)-33 (0x21)
    80. Format                         : RLE
    81. Format/Info                    : Run-length encoding
    82. Muxing mode                    : DVD-Video
    83. Duration                       : 34 min 11 s
    84. Delay relative to video        : 1 s 920 ms

    85. Menu
    复制代码



    购买主题 本主题需向作者支付 30 大洋 才能浏览
    郑重声明:
    本人提供的所有影视作品均是在网上搜集,任何涉及商业盈利目的均不得使用,否则产生的一切后果将由您自己承担!
    本人不对本人所发布的任何内容负任何法律责任!该下载内容仅做宽带测试使用,请在下载后24小时内删除。请购买正版!
    本人列出的文件没有保存在本站的服务器上,本人仅负责连接,本人对被传播文件的内容一无所知。
    如侵犯视频原作者或发行商版权,请联系本人删除!
    回复

    使用道具 举报

    您需要登录后才可以回帖 登录 | 立即注册

    本版积分规则

    QQ|Archiver|手机版|小黑屋|影迷乐园  

    GMT+8, 2020-4-4 03:20 , Processed in 0.128291 second(s), 30 queries .

    Powered by Discuz! X3.3

    © 2001-2017 Comsenz Inc.

    快速回复 返回顶部 返回列表