请选择 进入手机版 | 继续访问电脑版

YMLY-影迷乐园-特效字幕 蓝光原盘 1080P 高清动漫电影电视剧

 找回密码
 立即注册
搜索
查看: 2375|回复: 20

[日本] [百度][1997][1080P][四驱兄弟][1-51话全][陕译.台配.日语][56.25GB][MKV][BDrip1080P.X264.AC3.LGGZS]

[复制链接]
  • TA的每日心情
    无聊
    2019-4-24 08:53
  • 签到天数: 33 天

    [LV.5]常住居民I

    80

    主题

    128

    帖子

    722

    积分

    版主

    Rank: 8Rank: 8

    积分
    722

    贵族勋章水瓶座勋章

    发表于 2019-4-19 01:26:39 | 显示全部楼层 |阅读模式
    转载自灵感动漫,在此感谢!



    ◎译  名 四驱兄弟II / 四驱兄弟2
    ◎片  名 爆走兄弟レッツ&ゴー!! WGP
    ◎年  代 1997
    ◎产  地 日本
    ◎类  别 动画
    ◎语  言 日语
    ◎上映日期 1997-07-05(日本)
    ◎豆瓣评分 8.6/10 from 7967 users
    ◎豆瓣链接 https://movie.douban.com/subject/2990288/
    ◎集  数 51
    ◎片  长 20分钟
    ◎导  演 加户誉夫 Takao Kato / 星合貴彦 / 井上修 / 村山靖 / 玉田博 / 笠井贤一 Kenichi Kasai
    ◎编  剧 星山博之 Hiroyuki Hoshiyama / 隅沢克之 Katsuyuki Sumizawa / 小出克彦 / 千葉克彦 / アミノテツロー
    ◎主  演 池泽春菜 Haruna Ikezawa
          江原正士 Masashi Ebara
          森久保祥太郎 Shotaro Morikubo
          大谷育江 Ikue Ootani
          神代知衣 Chie Kôjiro



    ◎标  签 动画 | 日本 | 日本动画 | 童年回忆 | 童年 | 动漫 | 四驱兄弟 | 1997

    ◎简  介  

      日本热血动感卡通巨片,情节跌宕起伏,对儿童心理素质的培养、团结协作精神的提高、不怕困难的勇气的培育、科学意识的发展,具有积极的意义。
    星马烈和星马豪是一对亲兄弟,被大家称为“四驱兄弟”。他们把土屋博士送的全覆式迷你赛车“战神号”进行创造性的改造,参加全国各式各样的比赛。兄弟俩不畏艰险,奋勇拼搏,团结协作,潜心研究,战胜了一个又一个艰难险阻,取得了一次又一次来之不易的胜利。
    第一、二部中小烈、小豪是主人公。第一部主要是小烈,小豪等人对抗大神博士的战斗赛车。第二部是世界杯大赛,小豪,小烈,三国藤吉,阿吉和鹰羽龙组成一队,队名叫日本TRF胜利代表队。第三部也是关于迷你车世界杯的,由星马烈、星马豪、三国藤吉、鹰羽龙和阿吉所代表的日本队一举夺得世界冠军后,日本四驱界再次掀起了赛车热潮。四驱新的一代人才辈出,其中包括极度崇拜星马兄弟的一文字兄弟也开始渐露头角。他们就是性格与小豪十分相像的、头脑少根筋的哥哥一文字豪树,和外表冷酷却很关心家人的弟弟一文字烈矢。他们在星马兄弟的指导下成长惊人。另外,在全国大赛全盘皆输的大神博士,带着他的女儿大神·玛丽娜和她的可怕的战斗赛车“火舞凤凰”再度回到赛车场,展开了对土屋博士及日本赛车界的复仇大计。日本四驱界再度卷入了战斗旋风之中。
    1. General
    2. Format                         : Matroska
    3. Format version                 : Version 4 / Version 2
    4. File size                      : 1.10 GiB
    5. Duration                       : 23 min 26 s
    6. Overall bit rate               : 6 706 kb/s
    7. Movie name                     : www.lggzs.com
    8. Encoded date                   : UTC 2018-07-04 12:08:54
    9. Writing application            : mkvmerge v6.5.0 ('Isn't she lovely') built on Oct 20 2013 12:50:05
    10. Writing library                : libebml v1.3.0 + libmatroska v1.4.1

    11. Video
    12. ID                             : 1
    13. Format                         : AVC
    14. Format/Info                    : Advanced Video Codec
    15. Format profile                 : High@L4
    16. Format settings, CABAC         : Yes
    17. Format settings, ReFrames      : 2 frames
    18. Codec ID                       : V_MPEG4/ISO/AVC
    19. Duration                       : 23 min 26 s
    20. Bit rate                       : 5 549 kb/s
    21. Width                          : 1 440 pixels
    22. Height                         : 1 080 pixels
    23. Display aspect ratio           : 4:3
    24. Frame rate mode                : Constant
    25. Frame rate                     : 23.976 (24000/1001) FPS
    26. Original frame rate            : 23.976 (23976/1000) FPS
    27. Color space                    : YUV
    28. Chroma subsampling             : 4:2:0
    29. Bit depth                      : 8 bits
    30. Scan type                      : Progressive
    31. Bits/(Pixel*Frame)             : 0.149
    32. Stream size                    : 930 MiB (83%)
    33. Writing library                : x264 core 148 r2692kMod 64f4e24
    34. Encoding settings              : cabac=1 / ref=1 / deblock=1:0:0 / analyse=0x3:0x113 / me=hex / subme=6 / psy=1 / fade_compensate=0.00 / psy_rd=1.00:0.00 / mixed_ref=0 / me_range=16 / chroma_me=1 / trellis=1 / 8x8dct=1 / cqm=0 / deadzone=21,11 / fast_pskip=1 / chroma_qp_offset=-2 / threads=7 / lookahead_threads=1 / sliced_threads=0 / nr=0 / decimate=1 / interlaced=0 / bluray_compat=0 / constrained_intra=0 / fgo=0 / bframes=1 / b_pyramid=0 / b_adapt=1 / b_bias=0 / direct=3 / weightb=1 / open_gop=0 / weightp=2 / keyint=250 / keyint_min=25 / scenecut=40 / intra_refresh=0 / rc_lookahead=40 / rc=crf / mbtree=1 / crf=21.0000 / qcomp=0.60 / qpmin=0 / qpmax=69 / qpstep=4 / ip_ratio=1.40 / aq=1:1.00
    35. Default                        : Yes
    36. Forced                         : No

    37. Audio #1
    38. ID                             : 3
    39. Format                         : AC-3
    40. Format/Info                    : Audio Coding 3
    41. Format settings, Endianness    : Big
    42. Codec ID                       : A_AC3
    43. Duration                       : 23 min 26 s
    44. Bit rate mode                  : Constant
    45. Bit rate                       : 448 kb/s
    46. Channel(s)                     : 2 channels
    47. Channel positions              : Front: L R
    48. Sampling rate                  : 48.0 kHz
    49. Frame rate                     : 31.250 FPS (1536 spf)
    50. Bit depth                      : 16 bits
    51. Compression mode               : Lossy
    52. Stream size                    : 75.1 MiB (7%)
    53. Language                       : Chinese
    54. Service kind                   : Complete Main
    55. Default                        : Yes
    56. Forced                         : No

    57. Audio #2
    58. ID                             : 4
    59. Format                         : AC-3
    60. Format/Info                    : Audio Coding 3
    61. Format settings, Endianness    : Big
    62. Codec ID                       : A_AC3
    63. Duration                       : 23 min 26 s
    64. Bit rate mode                  : Constant
    65. Bit rate                       : 448 kb/s
    66. Channel(s)                     : 2 channels
    67. Channel positions              : Front: L R
    68. Sampling rate                  : 48.0 kHz
    69. Frame rate                     : 31.250 FPS (1536 spf)
    70. Bit depth                      : 16 bits
    71. Compression mode               : Lossy
    72. Stream size                    : 75.1 MiB (7%)
    73. Language                       : Chinese
    74. Service kind                   : Complete Main
    75. Default                        : No
    76. Forced                         : No

    77. Audio #3
    78. ID                             : 5
    79. Format                         : AC-3
    80. Format/Info                    : Audio Coding 3
    81. Format settings, Endianness    : Big
    82. Codec ID                       : A_AC3
    83. Duration                       : 23 min 26 s
    84. Bit rate mode                  : Constant
    85. Bit rate                       : 128 kb/s
    86. Channel(s)                     : 2 channels
    87. Channel positions              : Front: L R
    88. Sampling rate                  : 48.0 kHz
    89. Frame rate                     : 31.250 FPS (1536 spf)
    90. Bit depth                      : 16 bits
    91. Compression mode               : Lossy
    92. Stream size                    : 21.5 MiB (2%)
    93. Language                       : Japanese
    94. Service kind                   : Complete Main
    95. Default                        : No
    96. Forced                         : No

    97. Text
    98. ID                             : 2
    99. Format                         : SSA
    100. Codec ID                       : S_TEXT/SSA
    101. Codec ID/Info                  : Sub Station Alpha
    102. Compression mode               : Lossless
    103. Default                        : Yes
    104. Forced                         : No
    复制代码




    购买主题 已有 13 人购买  本主题需向作者支付 30 大洋 才能浏览
    回复

    使用道具 举报

  • TA的每日心情
    郁闷
    2020-12-27 19:24
  • 签到天数: 41 天

    [LV.5]常住居民I

    0

    主题

    263

    帖子

    25

    积分

    初级影迷

    Rank: 2

    积分
    25

    影迷男神

    发表于 2019-11-20 11:30:43 | 显示全部楼层
    支持支持666666
    回复

    使用道具 举报

  • TA的每日心情
    开心
    2020-10-17 18:28
  • 签到天数: 196 天

    [LV.7]常住居民III

    0

    主题

    1324

    帖子

    277

    积分

    超级影迷

    Rank: 6Rank: 6

    积分
    277
    发表于 2019-11-20 13:05:31 来自手机 | 显示全部楼层
    多谢楼主分享精釆影片
    回复

    使用道具 举报

  • TA的每日心情

    4 天前
  • 签到天数: 67 天

    [LV.6]常住居民II

    0

    主题

    190

    帖子

    70

    积分

    中级影迷

    Rank: 3Rank: 3

    积分
    70
    发表于 2020-2-4 08:13:46 | 显示全部楼层
    谢谢大佬分享
    回复

    使用道具 举报

  • TA的每日心情
    奋斗
    昨天 13:09
  • 签到天数: 282 天

    [LV.8]以坛为家I

    0

    主题

    479

    帖子

    30

    积分

    初级影迷

    Rank: 2

    积分
    30
    发表于 2020-2-10 01:20:18 | 显示全部楼层
    感谢分享 谢谢
    回复

    使用道具 举报

  • TA的每日心情
    开心
    2020-7-18 23:01
  • 签到天数: 84 天

    [LV.6]常住居民II

    40

    主题

    353

    帖子

    344

    积分

    超级影迷

    Rank: 6Rank: 6

    积分
    344
    发表于 2020-3-14 19:25:14 | 显示全部楼层
    谢谢分享啊
    回复

    使用道具 举报

  • TA的每日心情

    2020-12-28 23:42
  • 签到天数: 73 天

    [LV.6]常住居民II

    2

    主题

    322

    帖子

    112

    积分

    中级影迷

    Rank: 3Rank: 3

    积分
    112
    发表于 2020-3-15 11:47:15 | 显示全部楼层
    星马烈和星马豪
    回复

    使用道具 举报

  • TA的每日心情
    开心
    2020-9-20 15:47
  • 签到天数: 10 天

    [LV.3]偶尔看看II

    0

    主题

    175

    帖子

    235

    积分

    高级影迷

    Rank: 4

    积分
    235
    发表于 2020-5-9 09:39:37 | 显示全部楼层

    多谢楼主分享精釆影片
    回复

    使用道具 举报

  • TA的每日心情
    难过
    2020-8-2 20:16
  • 签到天数: 65 天

    [LV.6]常住居民II

    0

    主题

    211

    帖子

    68

    积分

    初级影迷

    Rank: 2

    积分
    68
    发表于 2020-5-11 11:54:19 | 显示全部楼层
    非常感谢。
    回复

    使用道具 举报

  • TA的每日心情
    开心
    6 小时前
  • 签到天数: 120 天

    [LV.7]常住居民III

    0

    主题

    224

    帖子

    36

    积分

    初级影迷

    Rank: 2

    积分
    36
    发表于 2020-6-15 04:02:41 | 显示全部楼层
    嘻嘻嘻谢谢!!!
    回复

    使用道具 举报

    您需要登录后才可以回帖 登录 | 立即注册

    本版积分规则

    QQ|Archiver|手机版|小黑屋|影迷乐园

    GMT+8, 2021-2-27 21:03 , Processed in 0.062656 second(s), 27 queries .

    Powered by Discuz! X3.4

    Copyright © 2001-2020, Tencent Cloud.

    快速回复 返回顶部 返回列表