请选择 进入手机版 | 继续访问电脑版

YMLY-影迷乐园-特效字幕 蓝光原盘 1080P 高清动漫电影电视剧

 找回密码
 立即注册
搜索
查看: 5445|回复: 240

[日本] [115+百度][1998][1080P][麻辣教师][外挂简中字幕][12集全+2SP+电影版][反町隆史.松岛菜菜子][MKV][49.27GB][Gto.1998.Amazon.WEB-DL.1080p.H264.DDP-AREY]

  [复制链接]
  • TA的每日心情
    奋斗
    2020-2-21 00:36
  • 签到天数: 656 天

    [LV.9]以坛为家II

    1万

    主题

    2万

    帖子

    10万

    积分

    超级版主

    与齐同行,是最初的梦想,也是一辈子的执着~

    Rank: 16Rank: 16Rank: 16Rank: 16

    积分
    104005

    内测勋章最佳新人十二生肖之猴VIP包月勋章影迷男神小土豪勋章土豪勋章富甲一方精华勋章金话筒主题达人灌水之王

    发表于 2022-6-16 23:40:27 | 显示全部楼层 |阅读模式
    下载说明:

    百度云网盘分享极其不稳定,如有链接失效,请第一时间站内短消息通知我,上线后会第一时间补发!请大家多多谅解!


    外挂两种简中字幕,字体样式请看截图

    2SP 特别篇和座谈会均为480P,视频文件标错了,其它只有SP1有外挂字幕,另一个SP没字幕!另外电影版我也一起打包进来了,7.41GB 外挂中字,后面有时间了我另外开一个帖子单独发一下电影版吧




    ◎译  名 麻辣教师/GTO/麻辣教师GTO
    ◎片  名 GTO: Great Teacher Onizuka
    ◎年  代 1998
    ◎产  地 日本
    ◎类  别 剧情/喜剧/动作
    ◎语  言 日语
    ◎上映日期 1998-07-07(日本)
    ◎IMDb评分  8.4/10 from 3746 users
    ◎IMDb链接  https://www.imdb.com/title/tt0209631/
    ◎豆瓣评分 8.8/10 from 34650 users
    ◎豆瓣链接 https://douban.com/subject/1464838/
    ◎集  数 12
    ◎片  长 46分钟
    ◎导  演 中岛悟 Satoru Nakajima / 铃木雅之 Masayuki Suzuki / 赤羽博 Hiroshi Akabane
    ◎编  剧 游川和彦 Kazuhiko Yukawa / 藤泽亨 Tooru Fujisawa
    ◎主  演 反町隆史 Takashi Sorimachi
           松岛菜菜子 Nanako Matsushima
           希良梨 Kirari
           近藤芳正 Yoshimasa Kondô
           池内博之 Hiroyuki Ikeuchi
           中尾彬 Akira Nakao
           洼冢洋介 Yôsuke Kubozuka
           小栗旬 Shun Oguri
           藤木直人 Naohito Fujiki
           中村爱美 Aimi Nakamura
           玉木宏 Hiroshi Tamaki
           竹野内丰 Yutaka Takenouchi
           白川南 Minami Shirakawa
           立石涼子 Ryoko Tateishi
           细川茂树 Shigeki Hosokawa
           片濑那奈 Nana Katase
           白川由美 Yumi Shirakawa
           
           田口主将 Kazumasa Taguchi
           筱井英介 Eisuke Sasai
           高桥克实 Katsumi Takahashi
           陈幼文 Youwen Chen
           小林正宽 Masahiro Kobayashi
           江角真纪子 Makiko Esumi
           村上幸平 Kouhei Murakami
           浅见伶奈 Reina Asami
           田岛令子 Reiko Tajima
           村上里佳子 Rikako Murakami
           圆城寺彩 Enjohji Aya
           沼田爆 Baku Numata
           佐藤B作 Bsaku Satoh
           山崎裕太 Yuta Yamazaki
           马渕英俚可 Erika Mabuchi
           木村多江 Tae Kimura
           北村总一朗 Sôichirô Kitamura
           林知花 Tomoka Hayashi

    ◎简  介

      
      鬼冢英吉(反町隆史 饰)是一名九流大学的毕业生,不仅学业一塌糊涂,就连以往记录也惨不忍睹,他曾当过暴走族、空手道5段,常人眼中的他可说是相当恐怖的街头混混。但英吉却有自己的梦想,那就是当一名中学老师,因为中学里有无数漂亮的美眉,一想到这英吉就经常双眼发亮。然而英吉费劲心机都没能通过公立学校的考试,于是他跑到了一家私立的中学武藏野圣林学苑应征。尽管包括教务处长内山田等人的强烈反对,但是深感学校弊端的校董觉得是应该让英吉这样的人来挑战一下传统教育的时候了。于是,英吉被录取,并被拍到问题少年最多、无人敢接手的二年四班当班主任。英吉的挑战开始了!
      

    ◎获奖情况

      第18届日剧学院赏  (1998)
      最优秀作品奖(提名)
      最佳男主角(提名) 反町隆史
      最佳女配角(提名) 松岛菜菜子

    1. General
    2. Unique ID                      : 256384269943129143106181839034506777601 (0xC0E1D07459265DD0F7FCFFCC15DB9401)
    3. 麻辣教师.Gto.1998.Amazon.WEB-DL.1080p.H264.DDP-AREY\Gto.E08.1998.Amazon.WEB-DL.1080p.H264.DDP-AREY.mkv
    4. Format                         : Matroska
    5. Format version                 : Version 4
    6. File size                      : 3.24 GiB
    7. Duration                       : 46 min 10 s
    8. Overall bit rate mode          : Constant
    9. Overall bit rate               : 10.1 Mb/s
    10. Encoded date                   : UTC 2019-07-13 08:00:41
    11. Writing application            : mkvmerge v32.0.0 ('Astral Progressions') 32-bit
    12. Writing library                : libebml v1.3.7 + libmatroska v1.5.0

    13. Video
    14. ID                             : 1
    15. Format                         : AVC
    16. Format/Info                    : Advanced Video Codec
    17. Format profile                 : [email protected]
    18. Format settings                : CABAC / 4 Ref Frames
    19. Format settings, CABAC         : Yes
    20. Format settings, Reference fra : 4 frames
    21. Codec ID                       : V_MPEG4/ISO/AVC
    22. Duration                       : 46 min 10 s
    23. Bit rate mode                  : Constant
    24. Bit rate                       : 10 000 kb/s
    25. Width                          : 1 920 pixels
    26. Height                         : 1 080 pixels
    27. Display aspect ratio           : 16:9
    28. Frame rate mode                : Constant
    29. Frame rate                     : 29.970 (30000/1001) FPS
    30. Color space                    : YUV
    31. Chroma subsampling             : 4:2:0
    32. Bit depth                      : 8 bits
    33. Scan type                      : Progressive
    34. Bits/(Pixel*Frame)             : 0.161
    35. Stream size                    : 3.17 GiB (98%)
    36. Default                        : Yes
    37. Forced                         : No
    38. Color range                    : Limited
    39. Color primaries                : BT.709
    40. Transfer characteristics       : BT.709
    41. Matrix coefficients            : BT.709

    42. Audio
    43. ID                             : 2
    44. Format                         : E-AC-3
    45. Format/Info                    : Enhanced AC-3
    46. Commercial name                : Dolby Digital Plus
    47. Codec ID                       : A_EAC3
    48. Duration                       : 46 min 10 s
    49. Bit rate mode                  : Constant
    50. Bit rate                       : 224 kb/s
    51. Channel(s)                     : 2 channels
    52. Channel layout                 : L R
    53. Sampling rate                  : 48.0 kHz
    54. Frame rate                     : 31.250 FPS (1536 SPF)
    55. Compression mode               : Lossy
    56. Stream size                    : 74.0 MiB (2%)
    57. Title                          : Japanese
    58. Language                       : Japanese
    59. Service kind                   : Complete Main
    60. Default                        : No
    61. Forced                         : No
    复制代码












    购买主题 已有 57 人购买  本主题需向作者支付 120 大洋 才能浏览
    郑重声明:
    本人提供的所有影视作品均是在网上搜集,任何涉及商业盈利目的均不得使用,否则产生的一切后果将由您自己承担!
    本人不对本人所发布的任何内容负任何法律责任!该下载内容仅做宽带测试使用,请在下载后24小时内删除。请购买正版!
    本人列出的文件没有保存在本站的服务器上,本人仅负责连接,本人对被传播文件的内容一无所知。
    如侵犯视频原作者或发行商版权,请联系本人删除!
    回复

    使用道具 举报

  • TA的每日心情
    开心
    2023-1-28 08:57
  • 签到天数: 313 天

    [LV.8]以坛为家I

    0

    主题

    2551

    帖子

    136

    积分

    中级影迷

    Rank: 3Rank: 3

    积分
    136
    发表于 2022-6-16 23:53:27 | 显示全部楼层
    很不错,感谢分享,加油!
    啊啊啊啊
    回复

    使用道具 举报

  • TA的每日心情
    开心
    22 分钟前
  • 签到天数: 331 天

    [LV.8]以坛为家I

    5

    主题

    1243

    帖子

    175

    积分

    高级影迷

    Rank: 4

    积分
    175
    发表于 2022-6-17 00:04:17 | 显示全部楼层
    谢谢分享,可惜还是有黑边啊,再等等。
    回复

    使用道具 举报

  • TA的每日心情
    擦汗
    昨天 00:01
  • 签到天数: 507 天

    [LV.9]以坛为家II

    6

    主题

    5155

    帖子

    692

    积分

    专业影迷

    Rank: 8Rank: 8

    积分
    692

    小土豪勋章

    发表于 2022-6-17 00:17:07 | 显示全部楼层
    感谢分享资源!
    回复

    使用道具 举报

  • TA的每日心情
    开心
    半小时前
  • 签到天数: 296 天

    [LV.8]以坛为家I

    0

    主题

    2601

    帖子

    566

    积分

    专业影迷

    Rank: 8Rank: 8

    积分
    566
    发表于 2022-6-17 00:20:24 | 显示全部楼层
    感谢楼主分享资源
    回复

    使用道具 举报

  • TA的每日心情

    21 分钟前
  • 签到天数: 525 天

    [LV.9]以坛为家II

    15

    主题

    3246

    帖子

    278

    积分

    超级影迷

    Rank: 6Rank: 6

    积分
    278
    发表于 2022-6-17 00:37:27 | 显示全部楼层
    要查看本帖隐藏内容请回复
    回复

    使用道具 举报

  • TA的每日心情
    无聊
    昨天 17:16
  • 签到天数: 189 天

    [LV.7]常住居民III

    0

    主题

    273

    帖子

    193

    积分

    高级影迷

    Rank: 4

    积分
    193
    发表于 2022-6-17 01:18:15 | 显示全部楼层
    感谢分享。
    回复

    使用道具 举报

  • TA的每日心情
    擦汗
    昨天 12:08
  • 签到天数: 358 天

    [LV.8]以坛为家I

    174

    主题

    1560

    帖子

    2514

    积分

    稀有影迷

    Rank: 12Rank: 12Rank: 12

    积分
    2514
    发表于 2022-6-17 01:58:34 | 显示全部楼层
    谢谢分享谢谢!
    回复

    使用道具 举报

  • TA的每日心情
    奋斗
    前天 23:17
  • 签到天数: 101 天

    [LV.6]常住居民II

    1

    主题

    1041

    帖子

    55

    积分

    初级影迷

    Rank: 2

    积分
    55
    发表于 2022-6-17 02:19:18 | 显示全部楼层
    谢谢楼主分享
    回复

    使用道具 举报

  • TA的每日心情
    擦汗
    2 分钟前
  • 签到天数: 918 天

    [LV.10]以坛为家III

    6

    主题

    7385

    帖子

    487

    积分

    专业影迷

    Rank: 8Rank: 8

    积分
    487
    发表于 2022-6-17 02:23:06 | 显示全部楼层
    感谢楼主分享资源
    回复

    使用道具 举报

    您需要登录后才可以回帖 登录 | 立即注册

    本版积分规则

    QQ|Archiver|手机版|小黑屋|影迷乐园

    GMT+8, 2023-2-7 00:47 , Processed in 0.116529 second(s), 32 queries .

    Powered by Discuz! X3.4

    Copyright © 2001-2020, Tencent Cloud.

    快速回复 返回顶部 返回列表