请选择 进入手机版 | 继续访问电脑版

YMLY-影迷乐园-特效字幕 蓝光原盘 1080P 高清动漫电影电视剧

 找回密码
 立即注册
搜索
查看: 4270|回复: 251

[大陆] [115+百度][2000][2160P][少年包青天][国语.简中硬字幕][周杰.释小龙.任泉][40集全][MP4][52.45GB][4K.WEB-DL.H265.AAC]

  [复制链接]
  • TA的每日心情
    奋斗
    2020-2-21 00:36
  • 签到天数: 656 天

    [LV.9]以坛为家II

    1万

    主题

    2万

    帖子

    10万

    积分

    超级版主

    与齐同行,是最初的梦想,也是一辈子的执着~

    Rank: 16Rank: 16Rank: 16Rank: 16

    积分
    104005

    内测勋章最佳新人十二生肖之猴VIP包月勋章影迷男神小土豪勋章土豪勋章富甲一方精华勋章金话筒主题达人灌水之王

    发表于 2022-6-29 20:55:40 | 显示全部楼层 |阅读模式
    下载说明:

    百度云网盘分享极其不稳定,如有链接失效,请第一时间站内短消息通知我,上线后会第一时间补发!


    ----转载自转自LemonHD,特此鸣谢!----

    优酷修复拉伸版,我大概看了一下,画质是我目前手上所有版本中最好的,除了一些远景镜头很糊,近景修复的相当给力,这个剧也是童年最爱看的剧之一!!!



    ◎译  名 少年包青天 第一部
    ◎片  名 少年包青天
    ◎年  代 2000
    ◎产  地 中国大陆
    ◎类  别 剧情/悬疑/古装
    ◎语  言 汉语普通话
    ◎上映日期 2000-09-04(中国香港)
    ◎IMDb评分  7.5/10 from 107 users
    ◎IMDb链接  https://www.imdb.com/title/tt6788684/
    ◎豆瓣评分 8.5/10 from 149727 users
    ◎豆瓣链接 https://douban.com/subject/2157131/
    ◎集  数 40
    ◎片  长 45分钟
    ◎导  演 胡明凯 Ming-Hoi Woo
    ◎编  剧 黄浩华 Ho-Wa Wong
    ◎主  演 周杰 Jie Zhou
           释小龙 Siu Lung Sik
           任泉 Quan Ren
           李冰冰 Bingbing Li
           陈道明 Daoming Chen
           刘怡君 Yijun Liu
           刘东浒 Donghu Liu
           郑佩佩 Pei-pei Cheng
           王绘春 Huichun Wang
           何中华 Zhonghua He
           张澎 Peng Zhang
           李胤龙 Yinlong Li
           高大伟 Dawei Gao
           言杰 Jie Yan
           陆建艺 Jianyi Lu
           党同义 Tongyi Dang
           朱闵 Min Zhu
           赵奔 Ben Zhao
           沈晓蓉 Xiaorong Shen
           邓小鸥 Xiao'ou Deng
           张东升 Dongsheng Zhang
           法提麦·雅琦 Fatimai Yaqi
           富大龙 Dalong Fu
           彭新智 Xinzhi Peng
           龚锦堂 Jintang Gong
           侯江龙 Kong Lung Hau
           贾致刚 Zhigang Jia
           张冰 Bing Zhang
           张雅欣 Yaxin Zhang

    ◎简  介

      
      包青天已经成为后世清廉的象征,若追溯到他的青年时代,稍显生涩的包拯(周杰 饰)一心追求着真理,发掘事实真相比功名利禄重要。还在求学准备科举的包拯已是庐州著名的才子,同学中另有一名才子公孙策(任泉 饰)也是一个心高气傲的聪明人,总是想与包拯一较高下。但每次破案都是被包拯抢 先一步,渐渐地被包拯的才智和胆识所折服。而误打误撞认识的凌楚楚(李冰冰 饰)其实背负着血海深仇,当她用计把包拯一行人带到自己从小生活的村庄,以求包拯寻找出当年父亲失踪的真相时,大家对楚楚平日的活泼好动背后故事有了更深的了解。包拯多次得罪权贵,以求真相,日后成为有名的清官在这个时候就已有迹可循。

    1. General
    2. 4k\Young.Justice.Bao.2000.S01E31.2160p.WEB-DL.H265.AAC-LeagueWEB.mp4
    3. Format                         : MPEG-4
    4. Format profile                 : Base Media
    5. Codec ID                       : isom (isom/iso2/mp41)
    6. File size                      : 1.39 GiB
    7. Duration                       : 46 min 1 s
    8. Overall bit rate mode          : Variable
    9. Overall bit rate               : 4 308 kb/s
    10. Writing application            : Lavf58.32.104

    11. Video
    12. ID                             : 1
    13. Format                         : HEVC
    14. Format/Info                    : High Efficiency Video Coding
    15. Format profile                 : [email protected]@Main
    16. Codec ID                       : hev1
    17. Codec ID/Info                  : High Efficiency Video Coding
    18. Duration                       : 46 min 1 s
    19. Bit rate                       : 4 111 kb/s
    20. Width                          : 3 840 pixels
    21. Height                         : 2 160 pixels
    22. Display aspect ratio           : 16:9
    23. Frame rate mode                : Constant
    24. Frame rate                     : 25.000 FPS
    25. Color space                    : YUV
    26. Chroma subsampling             : 4:2:0
    27. Bit depth                      : 8 bits
    28. Bits/(Pixel*Frame)             : 0.020
    29. Stream size                    : 1.32 GiB (95%)
    30. Color range                    : Limited
    31. Color primaries                : BT.709
    32. Transfer characteristics       : BT.709
    33. Matrix coefficients            : BT.709
    34. Codec configuration box        : hvcC

    35. Audio
    36. ID                             : 2
    37. Format                         : AAC LC
    38. Format/Info                    : Advanced Audio Codec Low Complexity
    39. Codec ID                       : mp4a-40-2
    40. Duration                       : 46 min 1 s
    41. Bit rate mode                  : Variable
    42. Bit rate                       : 192 kb/s
    43. Channel(s)                     : 2 channels
    44. Channel layout                 : L R
    45. Sampling rate                  : 44.1 kHz
    46. Frame rate                     : 43.066 FPS (1024 SPF)
    47. Compression mode               : Lossy
    48. Stream size                    : 62.4 MiB (4%)
    49. Default                        : Yes
    50. Alternate group                : 1
    复制代码



































    购买主题 已有 99 人购买  本主题需向作者支付 100 大洋 才能浏览
    郑重声明:
    本人提供的所有影视作品均是在网上搜集,任何涉及商业盈利目的均不得使用,否则产生的一切后果将由您自己承担!
    本人不对本人所发布的任何内容负任何法律责任!该下载内容仅做宽带测试使用,请在下载后24小时内删除。请购买正版!
    本人列出的文件没有保存在本站的服务器上,本人仅负责连接,本人对被传播文件的内容一无所知。
    如侵犯视频原作者或发行商版权,请联系本人删除!
    回复

    使用道具 举报

    该用户从未签到

    0

    主题

    6977

    帖子

    770

    积分

    ★★VIP6★★

    Rank: 22Rank: 22Rank: 22Rank: 22Rank: 22Rank: 22

    积分
    770

    贵族勋章开坛功臣

    发表于 2022-6-29 21:11:56 | 显示全部楼层
    支持高清啊
    回复

    使用道具 举报

  • TA的每日心情
    开心
    昨天 18:57
  • 签到天数: 707 天

    [LV.9]以坛为家II

    2

    主题

    1310

    帖子

    257

    积分

    超级影迷

    Rank: 6Rank: 6

    积分
    257
    发表于 2022-6-29 22:12:13 | 显示全部楼层
    谢谢楼主分享
    回复

    使用道具 举报

  • TA的每日心情
    擦汗
    1 分钟前
  • 签到天数: 918 天

    [LV.10]以坛为家III

    6

    主题

    7384

    帖子

    486

    积分

    专业影迷

    Rank: 8Rank: 8

    积分
    486
    发表于 2022-6-29 22:14:37 | 显示全部楼层
    谢谢楼主分享
    回复

    使用道具 举报

  • TA的每日心情
    奋斗
    半小时前
  • 签到天数: 796 天

    [LV.10]以坛为家III

    42

    主题

    7366

    帖子

    2912

    积分

    稀有影迷

    Rank: 12Rank: 12Rank: 12

    积分
    2912
    发表于 2022-6-29 22:31:34 | 显示全部楼层
    谢谢楼主分享
    回复

    使用道具 举报

  • TA的每日心情
    开心
    半小时前
  • 签到天数: 471 天

    [LV.9]以坛为家II

    0

    主题

    936

    帖子

    115

    积分

    中级影迷

    Rank: 3Rank: 3

    积分
    115
    发表于 2022-6-29 22:41:07 | 显示全部楼层
    图像确实不错
    回复

    使用道具 举报

  • TA的每日心情
    奋斗
    3 天前
  • 签到天数: 670 天

    [LV.9]以坛为家II

    1

    主题

    4766

    帖子

    1196

    积分

    资深影迷

    Rank: 10Rank: 10Rank: 10

    积分
    1196
    发表于 2022-6-29 22:44:48 | 显示全部楼层
    这个居然出4k了
    回复

    使用道具 举报

  • TA的每日心情
    开心
    7 天前
  • 签到天数: 493 天

    [LV.9]以坛为家II

    4

    主题

    3715

    帖子

    1313

    积分

    资深影迷

    Rank: 10Rank: 10Rank: 10

    积分
    1313
    发表于 2022-6-29 22:52:32 来自手机 | 显示全部楼层
    感谢分享哈
    回复

    使用道具 举报

  • TA的每日心情
    擦汗
    昨天 12:08
  • 签到天数: 358 天

    [LV.8]以坛为家I

    174

    主题

    1560

    帖子

    2514

    积分

    稀有影迷

    Rank: 12Rank: 12Rank: 12

    积分
    2514
    发表于 2022-6-29 23:45:44 | 显示全部楼层
    太棒了最喜欢这个了 谢谢
    回复

    使用道具 举报

  • TA的每日心情
    慵懒
    半小时前
  • 签到天数: 446 天

    [LV.9]以坛为家II

    2

    主题

    642

    帖子

    233

    积分

    高级影迷

    Rank: 4

    积分
    233
    发表于 2022-6-29 23:56:07 | 显示全部楼层
    回复

    使用道具 举报

    您需要登录后才可以回帖 登录 | 立即注册

    本版积分规则

    QQ|Archiver|手机版|小黑屋|影迷乐园

    GMT+8, 2023-2-7 00:47 , Processed in 0.103938 second(s), 29 queries .

    Powered by Discuz! X3.4

    Copyright © 2001-2020, Tencent Cloud.

    快速回复 返回顶部 返回列表