请选择 进入手机版 | 继续访问电脑版

YMLY-影迷乐园-特效字幕 蓝光原盘 1080P 高清动漫电影电视剧

 找回密码
 立即注册
搜索
查看: 2418|回复: 189

[美国] [115+百度][2022][1080P][黑袍纠察队.第3季][8集全][英语.内封简英双字][14.5G][MKV][The.Boys.S03.2022.1080p.WEB-DL.x265.10bit.AC3£[email protected]]

  [复制链接]
  • TA的每日心情
    奋斗
    前天 08:16
  • 签到天数: 598 天

    [LV.9]以坛为家II

    268

    主题

    1822

    帖子

    3362

    积分

    传奇影迷

    Rank: 14Rank: 14Rank: 14Rank: 14

    积分
    3362
    发表于 2022-7-12 09:03:21 | 显示全部楼层 |阅读模式


    ◎片  名 黑袍纠察队 第三季
    ◎年  代 The Boys Season 3
    ◎产  地 美国
    ◎类  别 剧情 / 动作 / 科幻 / 犯罪
    ◎语  言 英语
    ◎上映日期 2022-06-03(美国)
    ◎豆瓣评分 8.9/10 from 41794 users
    ◎豆瓣链接 https://movie.douban.com/subject/35154050/
    ◎季  数 3
    ◎集  数 8
    ◎片  长 60分钟
    ◎导  演 菲利浦·斯格里西亚
    ◎编  剧 艾力克·克莱普科 / 加思·恩尼斯 / 达里克·罗伯逊
    ◎主  演 卡尔·厄本 / 杰克·奎德 / 安东尼·斯塔尔 / 艾琳·莫里亚蒂 / 多米妮克·麦克艾丽戈特 / 更多...
    ◎简  介 
      讲述的是一群自发形成的“纠察队”成员为阻止道貌岸然的腐败“超级英雄”滥用超能力祸害世界,与沃特国际公司旗下的邪恶超能力者展开殊死搏斗的故事。本季有詹森·阿克斯新加盟饰演士兵男孩,劳瑞·侯登饰演绯红伯爵夫人

    1. General
    2. Complete name                  : The.Boys.S03E01.2022.1080p.WEB-DL.x265.10bit.AC3£[email protected]
    3. Format                         : Matroska
    4. Format version                 : Version 4
    5. File size                      : 1.76 GiB
    6. Duration                       : 1 h 1 min
    7. Overall bit rate               : 4 071 kb/s
    8. Movie name                     : [email protected]
    9. Encoded date                   : UTC 2022-07-09 05:09:06
    10. Writing application            : mkvmerge v8.3.0 ('Over the Horizon') 32bit
    11. Writing library                : libebml v1.3.1 + libmatroska v1.4.2

    12. Video
    13. ID                             : 1
    14. Format                         : HEVC
    15. Format/Info                    : High Efficiency Video Coding
    16. Format profile                 : Main [email protected]@Main
    17. Codec ID                       : V_MPEGH/ISO/HEVC
    18. Duration                       : 1 h 1 min
    19. Bit rate                       : 3 428 kb/s
    20. Width                          : 1 920 pixels
    21. Height                         : 804 pixels
    22. Display aspect ratio           : 2.40:1
    23. Frame rate mode                : Constant
    24. Frame rate                     : 23.976 (24000/1001) FPS
    25. Color space                    : YUV
    26. Chroma subsampling             : 4:2:0 (Type 0)
    27. Bit depth                      : 10 bits
    28. Bits/(Pixel*Frame)             : 0.093
    29. Stream size                    : 1.48 GiB (84%)
    30. Writing library                : x265
    31. Default                        : Yes
    32. Forced                         : No
    33. Color range                    : Limited
    34. Color primaries                : BT.709
    35. Transfer characteristics       : BT.709
    36. Matrix coefficients            : BT.709

    37. Audio
    38. ID                             : 2
    39. Format                         : E-AC-3
    40. Format/Info                    : Enhanced AC-3
    41. Commercial name                : Dolby Digital Plus
    42. Codec ID                       : A_EAC3
    43. Duration                       : 1 h 1 min
    44. Bit rate mode                  : Constant
    45. Bit rate                       : 640 kb/s
    46. Channel(s)                     : 6 channels
    47. Channel layout                 : L R C LFE Ls Rs
    48. Sampling rate                  : 48.0 kHz
    49. Frame rate                     : 31.250 FPS (1536 SPF)
    50. Compression mode               : Lossy
    51. Delay relative to video        : -5 ms
    52. Stream size                    : 284 MiB (16%)
    53. Title                          : English-DD5.1£cXcY
    54. Language                       : English
    55. Service kind                   : Complete Main
    56. Default                        : Yes
    57. Forced                         : No

    58. Text #1
    59. ID                             : 3
    60. Format                         : ASS
    61. Codec ID                       : S_TEXT/ASS
    62. Codec ID/Info                  : Advanced Sub Station Alpha
    63. Duration                       : 58 min 10 s
    64. Bit rate                       : 292 b/s
    65. Count of elements              : 795
    66. Compression mode               : Lossless
    67. Stream size                    : 125 KiB (0%)
    68. Title                          : 中上英下-ASS_官方字幕£cXcY
    69. Language                       : Chinese
    70. Default                        : Yes
    71. Forced                         : Yes

    72. Text #2
    73. ID                             : 4
    74. Format                         : UTF-8
    75. Codec ID                       : S_TEXT/UTF8
    76. Codec ID/Info                  : UTF-8 Plain Text
    77. Duration                       : 58 min 10 s
    78. Bit rate                       : 62 b/s
    79. Count of elements              : 795
    80. Stream size                    : 26.8 KiB (0%)
    81. Title                          : 简体中文-SRT_官方字幕£cXcY
    82. Language                       : Chinese
    83. Default                        : No
    84. Forced                         : No

    85. Text #3
    86. ID                             : 5
    87. Format                         : ASS
    88. Codec ID                       : S_TEXT/ASS
    89. Codec ID/Info                  : Advanced Sub Station Alpha
    90. Duration                       : 57 min 49 s
    91. Bit rate                       : 119 b/s
    92. Count of elements              : 767
    93. Compression mode               : Lossless
    94. Stream size                    : 50.6 KiB (0%)
    95. Title                          : 英文-ASS_官方字幕£cXcY
    96. Language                       : English
    97. Default                        : No
    98. Forced                         : No
    复制代码








    购买主题 已有 122 人购买  本主题需向作者支付 20 大洋 才能浏览
    回复

    使用道具 举报

  • TA的每日心情
    开心
    前天 15:44
  • 签到天数: 469 天

    [LV.9]以坛为家II

    31

    主题

    4476

    帖子

    1423

    积分

    资深影迷

    Rank: 10Rank: 10Rank: 10

    积分
    1423
    发表于 2022-7-12 09:17:48 | 显示全部楼层
    感谢分享。
    回复

    使用道具 举报

  • TA的每日心情
    无聊
    昨天 19:24
  • 签到天数: 757 天

    [LV.10]以坛为家III

    7

    主题

    7244

    帖子

    746

    积分

    专业影迷

    Rank: 8Rank: 8

    积分
    746
    发表于 2022-7-12 09:22:20 | 显示全部楼层
    感谢分享好资源
    回复

    使用道具 举报

  • TA的每日心情
    慵懒
    昨天 09:27
  • 签到天数: 655 天

    [LV.9]以坛为家II

    0

    主题

    739

    帖子

    249

    积分

    高级影迷

    Rank: 4

    积分
    249
    发表于 2022-7-12 09:30:15 | 显示全部楼层
    终于出熟肉资源啦!
    回复

    使用道具 举报

  • TA的每日心情
    开心
    昨天 09:19
  • 签到天数: 917 天

    [LV.10]以坛为家III

    2

    主题

    9464

    帖子

    1651

    积分

    稀有影迷

    Rank: 12Rank: 12Rank: 12

    积分
    1651
    发表于 2022-7-12 10:10:24 | 显示全部楼层
    谢谢楼主分享
    回复

    使用道具 举报

  • TA的每日心情
    开心
    3 天前
  • 签到天数: 232 天

    [LV.7]常住居民III

    1

    主题

    2313

    帖子

    188

    积分

    高级影迷

    Rank: 4

    积分
    188
    发表于 2022-7-12 10:12:53 | 显示全部楼层
    谢谢楼主分享
    回复

    使用道具 举报

  • TA的每日心情
    开心
    昨天 11:39
  • 签到天数: 420 天

    [LV.9]以坛为家II

    2

    主题

    3570

    帖子

    943

    积分

    资深影迷

    Rank: 10Rank: 10Rank: 10

    积分
    943

    小土豪勋章土豪勋章

    发表于 2022-7-12 10:28:47 | 显示全部楼层
    感谢分享。
    回复

    使用道具 举报

  • TA的每日心情
    开心
    昨天 00:43
  • 签到天数: 292 天

    [LV.8]以坛为家I

    1

    主题

    2539

    帖子

    460

    积分

    专业影迷

    Rank: 8Rank: 8

    积分
    460
    发表于 2022-7-12 10:30:53 | 显示全部楼层
    感谢分享好资源
    回复

    使用道具 举报

  • TA的每日心情
    开心
    昨天 13:19
  • 签到天数: 830 天

    [LV.10]以坛为家III

    5

    主题

    4716

    帖子

    403

    积分

    超级影迷

    Rank: 6Rank: 6

    积分
    403
    发表于 2022-7-12 11:05:02 | 显示全部楼层
    感谢大佬分享好片
    回复

    使用道具 举报

  • TA的每日心情
    郁闷
    昨天 08:26
  • 签到天数: 2028 天

    [LV.Master]伴坛终老

    64

    主题

    3646

    帖子

    2242

    积分

    稀有影迷

    Rank: 12Rank: 12Rank: 12

    积分
    2242

    土豪勋章小土豪勋章

    发表于 2022-7-12 11:17:06 | 显示全部楼层
    感谢分享好剧
    回复

    使用道具 举报

    您需要登录后才可以回帖 登录 | 立即注册

    本版积分规则

    QQ|Archiver|手机版|小黑屋|影迷乐园

    GMT+8, 2023-2-7 00:12 , Processed in 0.097069 second(s), 27 queries .

    Powered by Discuz! X3.4

    Copyright © 2001-2020, Tencent Cloud.

    快速回复 返回顶部 返回列表