请选择 进入手机版 | 继续访问电脑版

YMLY-影迷乐园-特效字幕 蓝光原盘 1080P 高清动漫电影电视剧

 找回密码
 立即注册
搜索
查看: 3279|回复: 191

[美国] [115+百度][2022][1080P][西部世界S04.第四季][外挂中英字幕][8集全][MKV][26.45GB][HMAX.WEB-DL.NTb]

  [复制链接]
  • TA的每日心情
    奋斗
    2020-2-21 00:36
  • 签到天数: 656 天

    [LV.9]以坛为家II

    1万

    主题

    2万

    帖子

    10万

    积分

    超级版主

    与齐同行,是最初的梦想,也是一辈子的执着~

    Rank: 16Rank: 16Rank: 16Rank: 16

    积分
    103993

    内测勋章最佳新人十二生肖之猴VIP包月勋章影迷男神小土豪勋章土豪勋章富甲一方精华勋章金话筒主题达人灌水之王

    发表于 2022-7-28 00:25:07 | 显示全部楼层 |阅读模式
    外挂字幕取自字幕库,来自FIX字幕侠



    ◎译  名 西部世界 第四季/西方极乐园(台)
    ◎片  名 Westworld Season 4
    ◎年  代 2022
    ◎产  地 美国
    ◎类  别 剧情/科幻/悬疑
    ◎语  言 英语
    ◎上映日期 2022-06-26(美国)
    ◎IMDb链接  https://www.imdb.com/title/tt12191076/
    ◎豆瓣评分 8.5/10 from 6064 users
    ◎豆瓣链接 https://douban.com/subject/35042913/
    ◎集  数 8
    ◎片  长 60分钟
    ◎导  演 理查德·J·刘易斯 Richard J. Lewis / 克雷格·麦克尼尔 Craig Macneill / 汉内尔 M.卡普珀 Hanelle M. Culpepper / 保罗·卡梅隆 Paul Cameron
    ◎编  剧 丽莎·乔伊 Lisa Joy / 乔纳森·诺兰 Jonathan Nolan / 迈克尔·克莱顿 Michael Crichton / 苏珊娜·鲁贝尔 Suzanne Wrubel / 凯文·刘 Kevin Lau / 克里斯蒂娜·哈姆 Christina Ham / Matt Pitts Matt Pitts / Will Soodik Will Soodik
    ◎主  演 埃文·蕾切尔·伍德 Evan Rachel Wood
           坦迪·牛顿 Thandiwe Newton
           杰弗里·怀特 Jeffrey Wright
           亚伦·保尔 Aaron Paul
           艾德·哈里斯 Ed Harris
           詹姆斯·麦斯登 James Marsden
           吴彦祖 Daniel Wu
           曼尼·蒙塔纳 Manny Montana
           阿丽亚娜·德博斯 Ariana DeBose
           奥罗拉·佩里诺 Aurora Perrineau
           吉姆·科迪·威廉姆斯 Jim Cody Williams
           丽贝卡·拉迪西奇 Rebecca Radisic
           泰莎·汤普森 Tessa Thompson
           卢克·海姆斯沃斯 Luke Hemsworth
           扎恩·迈克拉农 Zahn McClarnon
           莉莉·西蒙斯 Lili Simmons
           安吉拉·萨拉弗安 Angela Sarafyan

    ◎简  介

      
      第四季将讲述一群机器人,在偏离程序员所设计的剧本后所发生的一些异常行为的故事。

    1. General
    2. Unique ID                      : 331978572010219101025777937807653606676 (0xF9C0BF4D478471ABB9158FE1736E1514)
    3. Format                         : Matroska
    4. Format version                 : Version 4
    5. File size                      : 3.02 GiB
    6. Duration                       : 50 min 32 s
    7. Overall bit rate mode          : Variable
    8. Overall bit rate               : 8 551 kb/s
    9. Writing application            : mkvmerge v68.0.0 ('The Curtain') 64-bit
    10. Writing library                : libebml v1.4.2 + libmatroska v1.6.4

    11. Video
    12. ID                             : 1
    13. Format                         : AVC
    14. Format/Info                    : Advanced Video Codec
    15. Format profile                 : [email protected]
    16. Format settings                : CABAC / 4 Ref Frames
    17. Format settings, CABAC         : Yes
    18. Format settings, Reference fra : 4 frames
    19. Codec ID                       : V_MPEG4/ISO/AVC
    20. Duration                       : 50 min 6 s
    21. Bit rate mode                  : Variable
    22. Bit rate                       : 8 250 kb/s
    23. Maximum bit rate               : 12.4 Mb/s
    24. Width                          : 1 920 pixels
    25. Height                         : 1 080 pixels
    26. Display aspect ratio           : 16:9
    27. Frame rate mode                : Constant
    28. Frame rate                     : 23.976 (24000/1001) FPS
    29. Color space                    : YUV
    30. Chroma subsampling             : 4:2:0
    31. Bit depth                      : 8 bits
    32. Scan type                      : Progressive
    33. Bits/(Pixel*Frame)             : 0.166
    34. Stream size                    : 2.88 GiB (96%)
    35. Writing library                : x264 core 157 r2965 861cec4
    36. Encoding settings              : cabac=1 / ref=4 / deblock=1:0:0 / analyse=0x3:0x113 / me=hex / subme=7 / psy=1 / psy_rd=1.00:0.00 / mixed_ref=1 / me_range=16 / chroma_me=1 / trellis=1 / 8x8dct=1 / cqm=0 / deadzone=21,11 / fast_pskip=1 / chroma_qp_offset=-2 / threads=34 / lookahead_threads=5 / sliced_threads=0 / nr=0 / decimate=1 / interlaced=0 / bluray_compat=0 / constrained_intra=0 / bframes=3 / b_pyramid=2 / b_adapt=1 / b_bias=0 / direct=1 / weightb=1 / open_gop=0 / weightp=2 / keyint=96 / keyint_min=96 / scenecut=40 / intra_refresh=0 / rc_lookahead=40 / rc=2pass / mbtree=1 / bitrate=8250 / ratetol=1.0 / qcomp=0.60 / qpmin=0 / qpmax=69 / qpstep=4 / cplxblur=20.0 / qblur=0.5 / vbv_maxrate=12375 / vbv_bufsize=6187 / nal_hrd=vbr / filler=0 / ip_ratio=1.40 / aq=1:1.00
    37. Default                        : Yes
    38. Forced                         : No
    39. Color range                    : Limited
    40. Color primaries                : BT.709
    41. Transfer characteristics       : BT.709
    42. Matrix coefficients            : BT.709

    43. Audio
    44. ID                             : 2
    45. Format                         : AC-3
    46. Format/Info                    : Audio Coding 3
    47. Commercial name                : Dolby Digital
    48. Codec ID                       : A_AC3
    49. Duration                       : 50 min 6 s
    50. Bit rate mode                  : Constant
    51. Bit rate                       : 384 kb/s
    52. Channel(s)                     : 6 channels
    53. Channel layout                 : L R C LFE Ls Rs
    54. Sampling rate                  : 48.0 kHz
    55. Frame rate                     : 31.250 FPS (1536 SPF)
    56. Bit depth                      : 16 bits
    57. Compression mode               : Lossy
    58. Stream size                    : 138 MiB (4%)
    59. Language                       : English
    60. Service kind                   : Complete Main
    61. Default                        : Yes
    62. Forced                         : No

    63. Text #1
    64. ID                             : 3
    65. Format                         : UTF-8
    66. Codec ID                       : S_TEXT/UTF8
    67. Codec ID/Info                  : UTF-8 Plain Text
    68. Duration                       : 48 min 54 s
    69. Bit rate                       : 47 b/s
    70. Count of elements              : 545
    71. Stream size                    : 17.1 KiB (0%)
    72. Language                       : English
    73. Default                        : No
    74. Forced                         : No

    75. Text #2
    76. ID                             : 4
    77. Format                         : UTF-8
    78. Codec ID                       : S_TEXT/UTF8
    79. Codec ID/Info                  : UTF-8 Plain Text
    80. Duration                       : 49 min 52 s
    81. Bit rate                       : 59 b/s
    82. Count of elements              : 662
    83. Stream size                    : 21.7 KiB (0%)
    84. Title                          : SDH
    85. Language                       : English
    86. Default                        : No
    87. Forced                         : No

    88. Text #3
    89. ID                             : 5
    90. Format                         : UTF-8
    91. Codec ID                       : S_TEXT/UTF8
    92. Codec ID/Info                  : UTF-8 Plain Text
    93. Duration                       : 48 min 54 s
    94. Bit rate                       : 48 b/s
    95. Count of elements              : 585
    96. Stream size                    : 17.5 KiB (0%)
    97. Language                       : Spanish
    98. Default                        : No
    99. Forced                         : No

    100. Text #4
    101. ID                             : 6
    102. Format                         : UTF-8
    103. Codec ID                       : S_TEXT/UTF8
    104. Codec ID/Info                  : UTF-8 Plain Text
    105. Duration                       : 49 min 52 s
    106. Bit rate                       : 57 b/s
    107. Count of elements              : 663
    108. Stream size                    : 21.1 KiB (0%)
    109. Title                          : SDH
    110. Language                       : Spanish
    111. Default                        : No
    112. Forced                         : No

    113. Text #5
    114. ID                             : 7
    115. Format                         : UTF-8
    116. Codec ID                       : S_TEXT/UTF8
    117. Codec ID/Info                  : UTF-8 Plain Text
    118. Duration                       : 48 min 54 s
    119. Bit rate                       : 73 b/s
    120. Count of elements              : 474
    121. Stream size                    : 26.4 KiB (0%)
    122. Language                       : Bulgarian
    123. Default                        : No
    124. Forced                         : No

    125. Text #6
    126. ID                             : 8
    127. Format                         : UTF-8
    128. Codec ID                       : S_TEXT/UTF8
    129. Codec ID/Info                  : UTF-8 Plain Text
    130. Duration                       : 48 min 59 s
    131. Bit rate                       : 40 b/s
    132. Count of elements              : 485
    133. Stream size                    : 14.6 KiB (0%)
    134. Language                       : Czech
    135. Default                        : No
    136. Forced                         : No

    137. Text #7
    138. ID                             : 9
    139. Format                         : UTF-8
    140. Codec ID                       : S_TEXT/UTF8
    141. Codec ID/Info                  : UTF-8 Plain Text
    142. Duration                       : 50 min 22 s
    143. Bit rate                       : 41 b/s
    144. Count of elements              : 402
    145. Stream size                    : 15.2 KiB (0%)
    146. Language                       : Danish
    147. Default                        : No
    148. Forced                         : No

    149. Text #8
    150. ID                             : 10
    151. Format                         : UTF-8
    152. Codec ID                       : S_TEXT/UTF8
    153. Codec ID/Info                  : UTF-8 Plain Text
    154. Duration                       : 50 min 23 s
    155. Bit rate                       : 40 b/s
    156. Count of elements              : 412
    157. Stream size                    : 15.1 KiB (0%)
    158. Language                       : Finnish
    159. Default                        : No
    160. Forced                         : No

    161. Text #9
    162. ID                             : 11
    163. Format                         : UTF-8
    164. Codec ID                       : S_TEXT/UTF8
    165. Codec ID/Info                  : UTF-8 Plain Text
    166. Duration                       : 48 min 18 s
    167. Bit rate                       : 40 b/s
    168. Count of elements              : 397
    169. Stream size                    : 14.2 KiB (0%)
    170. Language                       : Croatian
    171. Default                        : No
    172. Forced                         : No

    173. Text #10
    174. ID                             : 12
    175. Format                         : UTF-8
    176. Codec ID                       : S_TEXT/UTF8
    177. Codec ID/Info                  : UTF-8 Plain Text
    178. Duration                       : 49 min 6 s
    179. Bit rate                       : 45 b/s
    180. Count of elements              : 491
    181. Stream size                    : 16.4 KiB (0%)
    182. Language                       : Hungarian
    183. Default                        : No
    184. Forced                         : No

    185. Text #11
    186. ID                             : 13
    187. Format                         : UTF-8
    188. Codec ID                       : S_TEXT/UTF8
    189. Codec ID/Info                  : UTF-8 Plain Text
    190. Duration                       : 48 min 18 s
    191. Bit rate                       : 72 b/s
    192. Count of elements              : 397
    193. Stream size                    : 25.8 KiB (0%)
    194. Language                       : Macedonian
    195. Default                        : No
    196. Forced                         : No

    197. Text #12
    198. ID                             : 14
    199. Format                         : UTF-8
    200. Codec ID                       : S_TEXT/UTF8
    201. Codec ID/Info                  : UTF-8 Plain Text
    202. Duration                       : 49 min 56 s
    203. Bit rate                       : 41 b/s
    204. Count of elements              : 369
    205. Stream size                    : 15.2 KiB (0%)
    206. Language                       : Dutch
    207. Default                        : No
    208. Forced                         : No

    209. Text #13
    210. ID                             : 15
    211. Format                         : UTF-8
    212. Codec ID                       : S_TEXT/UTF8
    213. Codec ID/Info                  : UTF-8 Plain Text
    214. Duration                       : 48 min 51 s
    215. Bit rate                       : 42 b/s
    216. Count of elements              : 381
    217. Stream size                    : 15.1 KiB (0%)
    218. Language                       : Norwegian
    219. Default                        : No
    220. Forced                         : No

    221. Text #14
    222. ID                             : 16
    223. Format                         : UTF-8
    224. Codec ID                       : S_TEXT/UTF8
    225. Codec ID/Info                  : UTF-8 Plain Text
    226. Duration                       : 48 min 58 s
    227. Bit rate                       : 37 b/s
    228. Count of elements              : 414
    229. Stream size                    : 13.6 KiB (0%)
    230. Language                       : Polish
    231. Default                        : No
    232. Forced                         : No

    233. Text #15
    234. ID                             : 17
    235. Format                         : UTF-8
    236. Codec ID                       : S_TEXT/UTF8
    237. Codec ID/Info                  : UTF-8 Plain Text
    238. Duration                       : 50 min 23 s
    239. Bit rate                       : 44 b/s
    240. Count of elements              : 416
    241. Stream size                    : 16.6 KiB (0%)
    242. Language                       : Portuguese
    243. Default                        : No
    244. Forced                         : No

    245. Text #16
    246. ID                             : 18
    247. Format                         : UTF-8
    248. Codec ID                       : S_TEXT/UTF8
    249. Codec ID/Info                  : UTF-8 Plain Text
    250. Duration                       : 49 min 7 s
    251. Bit rate                       : 46 b/s
    252. Count of elements              : 488
    253. Stream size                    : 16.6 KiB (0%)
    254. Language                       : Romanian
    255. Default                        : No
    256. Forced                         : No

    257. Text #17
    258. ID                             : 19
    259. Format                         : UTF-8
    260. Codec ID                       : S_TEXT/UTF8
    261. Codec ID/Info                  : UTF-8 Plain Text
    262. Duration                       : 48 min 18 s
    263. Bit rate                       : 39 b/s
    264. Count of elements              : 397
    265. Stream size                    : 13.9 KiB (0%)
    266. Language                       : Slovenian
    267. Default                        : No
    268. Forced                         : No

    269. Text #18
    270. ID                             : 20
    271. Format                         : UTF-8
    272. Codec ID                       : S_TEXT/UTF8
    273. Codec ID/Info                  : UTF-8 Plain Text
    274. Duration                       : 48 min 18 s
    275. Bit rate                       : 40 b/s
    276. Count of elements              : 397
    277. Stream size                    : 14.2 KiB (0%)
    278. Language                       : Serbian
    279. Default                        : No
    280. Forced                         : No

    281. Text #19
    282. ID                             : 21
    283. Format                         : UTF-8
    284. Codec ID                       : S_TEXT/UTF8
    285. Codec ID/Info                  : UTF-8 Plain Text
    286. Duration                       : 48 min 12 s
    287. Bit rate                       : 43 b/s
    288. Count of elements              : 387
    289. Stream size                    : 15.5 KiB (0%)
    290. Language                       : Swedish
    291. Default                        : No
    292. Forced                         : No

    293. Menu
    294. 00:00:00.000                   : en:Chapter 1
    295. 00:09:45.835                   : en:Intro
    296. 00:11:25.436                   : en:Chapter 2
    297. 00:48:56.000                   : en:Credits
    复制代码







    购买主题 已有 36 人购买  本主题需向作者支付 30 大洋 才能浏览
    郑重声明:
    本人提供的所有影视作品均是在网上搜集,任何涉及商业盈利目的均不得使用,否则产生的一切后果将由您自己承担!
    本人不对本人所发布的任何内容负任何法律责任!该下载内容仅做宽带测试使用,请在下载后24小时内删除。请购买正版!
    本人列出的文件没有保存在本站的服务器上,本人仅负责连接,本人对被传播文件的内容一无所知。
    如侵犯视频原作者或发行商版权,请联系本人删除!
    回复

    使用道具 举报

  • TA的每日心情

    14 小时前
  • 签到天数: 298 天

    [LV.8]以坛为家I

    8

    主题

    2799

    帖子

    465

    积分

    专业影迷

    Rank: 8Rank: 8

    积分
    465
    发表于 2022-7-28 00:39:41 | 显示全部楼层
    感谢分享啊
    回复

    使用道具 举报

  • TA的每日心情
    开心
    17 小时前
  • 签到天数: 309 天

    [LV.8]以坛为家I

    0

    主题

    2756

    帖子

    162

    积分

    高级影迷

    Rank: 4

    积分
    162
    发表于 2022-7-28 06:26:04 | 显示全部楼层
    感谢分享!!
    回复

    使用道具 举报

  • TA的每日心情
    开心
    17 小时前
  • 签到天数: 332 天

    [LV.8]以坛为家I

    16

    主题

    2865

    帖子

    2718

    积分

    稀有影迷

    Rank: 12Rank: 12Rank: 12

    积分
    2718

    小土豪勋章土豪勋章

    发表于 2022-7-28 06:56:57 来自手机 | 显示全部楼层
    谢谢分享啊
    回复

    使用道具 举报

  • TA的每日心情
    开心
    14 小时前
  • 签到天数: 632 天

    [LV.9]以坛为家II

    86

    主题

    7108

    帖子

    781

    积分

    专业影迷

    Rank: 8Rank: 8

    积分
    781
    发表于 2022-7-28 07:09:38 | 显示全部楼层
    谢谢分享!!
    回复

    使用道具 举报

  • TA的每日心情

    15 小时前
  • 签到天数: 467 天

    [LV.9]以坛为家II

    9

    主题

    4591

    帖子

    316

    积分

    超级影迷

    Rank: 6Rank: 6

    积分
    316
    发表于 2022-7-28 07:41:18 | 显示全部楼层
    谢谢分享好资源
    回复

    使用道具 举报

  • TA的每日心情
    开心
    12 小时前
  • 签到天数: 420 天

    [LV.9]以坛为家II

    2

    主题

    3570

    帖子

    943

    积分

    资深影迷

    Rank: 10Rank: 10Rank: 10

    积分
    943

    小土豪勋章土豪勋章

    发表于 2022-7-28 08:09:07 | 显示全部楼层
    感谢分享资源
    回复

    使用道具 举报

  • TA的每日心情
    开心
    昨天 08:27
  • 签到天数: 299 天

    [LV.8]以坛为家I

    0

    主题

    2331

    帖子

    533

    积分

    专业影迷

    Rank: 8Rank: 8

    积分
    533
    发表于 2022-7-28 08:27:51 | 显示全部楼层
    感谢分享资源
    回复

    使用道具 举报

  • TA的每日心情
    开心
    2023-1-28 08:57
  • 签到天数: 313 天

    [LV.8]以坛为家I

    0

    主题

    2551

    帖子

    136

    积分

    中级影迷

    Rank: 3Rank: 3

    积分
    136
    发表于 2022-7-28 08:46:03 | 显示全部楼层
    很不错,感谢分享,加油!
    啊啊啊啊
    回复

    使用道具 举报

  • TA的每日心情
    开心
    前天 12:01
  • 签到天数: 232 天

    [LV.7]常住居民III

    1

    主题

    2313

    帖子

    188

    积分

    高级影迷

    Rank: 4

    积分
    188
    发表于 2022-7-28 09:31:38 | 显示全部楼层
    感谢分享精彩资源
    回复

    使用道具 举报

    您需要登录后才可以回帖 登录 | 立即注册

    本版积分规则

    QQ|Archiver|手机版|小黑屋|影迷乐园

    GMT+8, 2023-2-6 23:48 , Processed in 0.109512 second(s), 28 queries .

    Powered by Discuz! X3.4

    Copyright © 2001-2020, Tencent Cloud.

    快速回复 返回顶部 返回列表