请选择 进入手机版 | 继续访问电脑版

YMLY-影迷乐园-特效字幕 蓝光原盘 1080P 高清动漫电影电视剧

 找回密码
 立即注册
搜索
查看: 1780|回复: 131

[韩国] [115+百度][2022][1080P][财阀家的小儿子][简繁字幕][16集全][MKV][31.49GB][Reborn.Rich.S01.2022.1080p.friDay.WEB-DL.x264.AAC-ADWeb]

  [复制链接]
  • TA的每日心情
    奋斗
    2020-2-21 00:36
  • 签到天数: 656 天

    [LV.9]以坛为家II

    1万

    主题

    2万

    帖子

    10万

    积分

    超级版主

    与齐同行,是最初的梦想,也是一辈子的执着~

    Rank: 16Rank: 16Rank: 16Rank: 16

    积分
    103998

    内测勋章最佳新人十二生肖之猴VIP包月勋章影迷男神小土豪勋章土豪勋章富甲一方精华勋章金话筒主题达人灌水之王

    发表于 2022-12-13 22:45:50 | 显示全部楼层 |阅读模式
    下载说明:

    百度云网盘分享极其不稳定,如有链接失效,请第一时间站内短消息通知我,上线后会第一时间补发!


    ----转载自Audiences,感谢压制和原发布人员,特此鸣谢!----



    ◎译  名 财阀家的小儿子/Reborn Rich/财阀家的小公子/财阀家的小孙子
    ◎片  名 재벌집 막내아들
    ◎年  代 2022
    ◎产  地 韩国
    ◎类  别 剧情 / 爱情 / 奇幻
    ◎语  言 韩语
    ◎上映日期 2022-11-18(韩国)
    ◎IMDb评分  8.3/10 from 699 users
    ◎IMDb链接  https://www.imdb.com/title/tt18352538/
    ◎豆瓣评分 8.3/10 from 34033 users
    ◎豆瓣链接 https://movie.douban.com/subject/30291070/
    ◎集  数 16
    ◎导  演 郑大允 Dae Yoon Jung
    ◎编  剧 金泰姬 Tae-heui Kim
    ◎主  演 宋仲基 Joong-ki Song
           李星民 Sung-min Lee
           申贤彬 Hyun-bin Shin
           赵汉哲 Han-chul Jo
           金贞兰 Jeong-nan Kim
           朴智炫 Ji-hyun Park
           姜基栋 Ki-doong Kang
           金南熙 Kim Nam Hee
           黄美英 Tiffany
           金英在 Yeong-jae Kim
           姜吉宇 Kang Gil Woo
           徐在熙 Seo Jae Hee
           文成贤 Moon Sung Hyun
           尹宰文 Je-mun Yun
           金信禄 Shin-rok Kim

    ◎简  介

      改编自同名人气网络小说,讲述管理财阀一家的秘书尹贤宇(宋仲基 饰),被冤枉涉嫌侵吞资金而被财阀家杀害。尹贤宇重生为财阀家的小儿子陈道俊,以新的身份一边成长一边复仇的故事。

    1. General
    2. Unique ID                      : 114040291342159194044939233609906365683 (0x55CB5C775B84FB0EC54803BD1903A4F3)
    3. Reborn.Rich.S01E11.2022.1080p.friDay.WEB-DL.x264.AAC-ADWeb.mkv
    4. Format                         : Matroska
    5. Format version                 : Version 4
    6. File size                      : 1.86 GiB
    7. Duration                       : 1 h 8 min
    8. Overall bit rate               : 3 890 kb/s
    9. Encoded date                   : UTC 2022-12-11 15:14:47
    10. Writing application            : mkvmerge v72.0.0 ('Minuano (Six-eight)') 64-bit
    11. Writing library                : libebml v1.4.4 + libmatroska v1.7.1

    12. Video
    13. ID                             : 1
    14. Format                         : AVC
    15. Format/Info                    : Advanced Video Codec
    16. Format profile                 : [email protected]
    17. Format settings                : CABAC / 1 Ref Frames
    18. Format settings, CABAC         : Yes
    19. Format settings, Reference fra : 1 frame
    20. Format settings, GOP           : M=1, N=60
    21. Codec ID                       : V_MPEG4/ISO/AVC
    22. Duration                       : 1 h 8 min
    23. Bit rate mode                  : Constant
    24. Bit rate                       : 3 762 kb/s
    25. Nominal bit rate               : 4 000 kb/s
    26. Width                          : 1 920 pixels
    27. Height                         : 1 080 pixels
    28. Display aspect ratio           : 16:9
    29. Frame rate mode                : Constant
    30. Frame rate                     : 29.970 (30000/1001) FPS
    31. Color space                    : YUV
    32. Chroma subsampling             : 4:2:0
    33. Bit depth                      : 8 bits
    34. Scan type                      : Progressive
    35. Bits/(Pixel*Frame)             : 0.061
    36. Stream size                    : 1.79 GiB (97%)
    37. Default                        : Yes
    38. Forced                         : No

    39. Audio
    40. ID                             : 2
    41. Format                         : AAC LC
    42. Format/Info                    : Advanced Audio Codec Low Complexity
    43. Codec ID                       : A_AAC-2
    44. Duration                       : 1 h 8 min
    45. Bit rate                       : 125 kb/s
    46. Channel(s)                     : 2 channels
    47. Channel layout                 : L R
    48. Sampling rate                  : 48.0 kHz
    49. Frame rate                     : 46.875 FPS (1024 SPF)
    50. Compression mode               : Lossy
    51. Stream size                    : 61.3 MiB (3%)
    52. Language                       : Korean
    53. Default                        : Yes
    54. Forced                         : No

    55. Text #1
    56. ID                             : 3
    57. Format                         : UTF-8
    58. Codec ID                       : S_TEXT/UTF8
    59. Codec ID/Info                  : UTF-8 Plain Text
    60. Duration                       : 1 h 8 min
    61. Bit rate                       : 52 b/s
    62. Count of elements              : 931
    63. Stream size                    : 26.0 KiB (0%)
    64. Title                          : Chinese Simplified
    65. Language                       : Chinese
    66. Default                        : Yes
    67. Forced                         : No

    68. Text #2
    69. ID                             : 4
    70. Format                         : UTF-8
    71. Codec ID                       : S_TEXT/UTF8
    72. Codec ID/Info                  : UTF-8 Plain Text
    73. Duration                       : 1 h 8 min
    74. Bit rate                       : 51 b/s
    75. Count of elements              : 931
    76. Stream size                    : 25.9 KiB (0%)
    77. Title                          : Chinese Traditional
    78. Language                       : Chinese
    79. Default                        : Yes
    80. Forced                         : No
    复制代码





    购买主题 已有 57 人购买  本主题需向作者支付 50 大洋 才能浏览
    郑重声明:
    本人提供的所有影视作品均是在网上搜集,任何涉及商业盈利目的均不得使用,否则产生的一切后果将由您自己承担!
    本人不对本人所发布的任何内容负任何法律责任!该下载内容仅做宽带测试使用,请在下载后24小时内删除。请购买正版!
    本人列出的文件没有保存在本站的服务器上,本人仅负责连接,本人对被传播文件的内容一无所知。
    如侵犯视频原作者或发行商版权,请联系本人删除!
    回复

    使用道具 举报

  • TA的每日心情
    无聊
    2023-1-30 16:12
  • 签到天数: 113 天

    [LV.6]常住居民II

    0

    主题

    194

    帖子

    30

    积分

    初级影迷

    Rank: 2

    积分
    30
    发表于 2022-12-13 22:56:41 | 显示全部楼层
    感谢分享优秀韩剧~
    回复

    使用道具 举报

  • TA的每日心情
    奋斗
    23 分钟前
  • 签到天数: 796 天

    [LV.10]以坛为家III

    42

    主题

    7366

    帖子

    2912

    积分

    稀有影迷

    Rank: 12Rank: 12Rank: 12

    积分
    2912
    发表于 2022-12-13 23:42:36 | 显示全部楼层
    感谢楼主发布
    回复

    使用道具 举报

  • TA的每日心情
    擦汗
    昨天 00:00
  • 签到天数: 474 天

    [LV.9]以坛为家II

    0

    主题

    858

    帖子

    80

    积分

    中级影迷

    Rank: 3Rank: 3

    积分
    80
    发表于 2022-12-13 23:49:48 | 显示全部楼层
    谢谢楼主分享
    回复

    使用道具 举报

    该用户从未签到

    0

    主题

    4

    帖子

    20

    积分

    入门影迷

    Rank: 1

    积分
    20
    发表于 2022-12-13 23:54:37 | 显示全部楼层
    11111111111111111111111
    回复

    使用道具 举报

  • TA的每日心情
    擦汗
    昨天 00:38
  • 签到天数: 917 天

    [LV.10]以坛为家III

    6

    主题

    7380

    帖子

    485

    积分

    专业影迷

    Rank: 8Rank: 8

    积分
    485
    发表于 2022-12-14 00:17:28 | 显示全部楼层
    感谢楼主发布
    回复

    使用道具 举报

  • TA的每日心情
    开心
    前天 14:49
  • 签到天数: 265 天

    [LV.8]以坛为家I

    0

    主题

    2114

    帖子

    293

    积分

    超级影迷

    Rank: 6Rank: 6

    积分
    293
    发表于 2022-12-14 00:26:36 | 显示全部楼层
    感谢制作,感谢分享。
    回复

    使用道具 举报

  • TA的每日心情

    2023-1-27 06:31
  • 签到天数: 165 天

    [LV.7]常住居民III

    0

    主题

    690

    帖子

    61

    积分

    初级影迷

    Rank: 2

    积分
    61
    发表于 2022-12-14 01:18:14 | 显示全部楼层
    感谢楼主发布
    回复

    使用道具 举报

  • TA的每日心情
    开心
    19 分钟前
  • 签到天数: 296 天

    [LV.8]以坛为家I

    0

    主题

    2601

    帖子

    566

    积分

    专业影迷

    Rank: 8Rank: 8

    积分
    566
    发表于 2022-12-14 01:53:15 | 显示全部楼层
    感谢楼主分享资源
    回复

    使用道具 举报

  • TA的每日心情
    郁闷
    昨天 06:32
  • 签到天数: 440 天

    [LV.9]以坛为家II

    2

    主题

    2034

    帖子

    126

    积分

    中级影迷

    Rank: 3Rank: 3

    积分
    126
    发表于 2022-12-14 03:23:26 | 显示全部楼层
    谢谢楼主分享
    回复

    使用道具 举报

    您需要登录后才可以回帖 登录 | 立即注册

    本版积分规则

    QQ|Archiver|手机版|小黑屋|影迷乐园

    GMT+8, 2023-2-7 00:23 , Processed in 0.103260 second(s), 28 queries .

    Powered by Discuz! X3.4

    Copyright © 2001-2020, Tencent Cloud.

    快速回复 返回顶部 返回列表