请选择 进入手机版 | 继续访问电脑版

YMLY-影迷乐园-特效字幕 蓝光原盘 1080P 高清动漫电影电视剧

 找回密码
 立即注册
搜索
查看: 980|回复: 68

[大陆] [115+百度][1996][1080P][东周列国][唐国强.王绘春.杨立新][国语.粤语.硬中字][全62集][MKV][94.78G][1080P.H265.50FPS]

  [复制链接]
  • TA的每日心情
    奋斗
    16 小时前
  • 签到天数: 183 天

    [LV.7]常住居民III

    66

    主题

    1212

    帖子

    7340

    积分

    史诗影迷

    Rank: 16Rank: 16Rank: 16Rank: 16

    积分
    7340

    富甲一方土豪勋章小土豪勋章

    QQ
    发表于 2022-12-25 14:31:16 | 显示全部楼层 |阅读模式




    ◎片  名 东周列国
    ◎年  代 1996
    ◎产  地 中国大陆
    ◎类  别 剧情 / 传记 / 历史 / 战争 / 古装
    ◎语  言 汉语/粤语
    ◎上映日期 1996-03-15
    ◎IMDb评分  8.0/10 from 184 users
    ◎IMDb链接  http://www.imdb.com/title/tt1162960/
    ◎豆瓣评分 9.4/10 from 10,096 users
    ◎豆瓣链接 https://movie.douban.com/subject/2341884/
    ◎集  数 62
    ◎片  长 45分钟
    ◎导  演 沈好放/HaoFang Shen
    ◎主  演 王绘春  HuiChun Wang
                      林乃桢 NaiZhen Lin
                      郑强 Qiang Zheng
                      何冰 Bing He
                      修宗迪 ZongDi Xiu
                      唐国强 GuoQiang Tang
                      谭宗尧 ZongYao Tan
                      蒋勤勤 QinQin Jiang
                      张光北 GuangBei Zhang
                      吴刚 Gang Wu
                      胡军 Jun Hu
                      奚美娟 MeiJuan Juan
                      杨立新 LiXin Yang

    ◎简  介

          全剧分为《东周列国·春秋篇》和《东周列国·战国篇》。其剧情主要是根据小说《东周列国志》改编,讲述了春秋战国时期的故事。《东周列国·春秋篇》30集,于1996年3月15日首播 ,《东周列国·战国篇》32集于1997年首播。
          周朝是历史上有明确纪年的开始, 从周文王演易经八卦,姜太公垂钓渭水,武王伐纣灭商,历经近300年兴衰。西周末年,周幽王烽火戏诸侯,美人一笑亡周朝。中国进入了礼崩乐坏,风云激荡的大变革时代。春秋时代开始了。春秋300年间,诸子迭起,百家争鸣,也正是这个沧桑巨变的年代,为后世奠定了博大精深的文化基础。同时存在了两千多年的奴隶社会成为过去,一个全新的时代将被托举出东方地平线。《东周列国·春秋篇》通过精心收集考证,复原了两千多年来广为流传的有关春秋时期的典故及成语故事,如:千金一笑、唇亡齿寒、赵氏孤儿、一鸣惊人、卧薪尝胆、孔夫子高山仰止、伍子胥过昭关等——让观众在回顾历史的同时,领略中华民族古文化的深刻内涵和华夏文明的精神之根。叹那昏聩糊涂的周幽王(王绘春 饰),只为博得美人一笑,竟上演了烽火戏诸侯的荒唐戏码,结果导致王权零落,死于犬戎兵的铁蹄之下。以此为转折点,各路诸侯相继崛起,郑庄公寤生(唐国强 饰)聪颖狡诈,在和诸侯乃至周王的交错中纵横捭阖,名震一时。黄泉认母,周郑交质,皆因他流传千古,却也为乱世霸主们做了坏的榜样。此后,禽兽齐襄公诸儿(鲍大志 饰)银乱亲妹,不惜拉杀鲁公,几乎断送了齐国的国脉。多亏齐桓公(杨立新 饰)和千古名相管仲(刘涛 饰)才成就了齐国的一方霸业。
      此外,楚国、越国、吴国、晋国。春秋霸主相继出世,上演着华夏历史上最纷乱也是最精彩的一段故事。

    东周列国·春秋篇·目录
    东周列国·春秋篇-01-骊山烽火
    东周列国·春秋篇-02-黄泉认母
    东周列国·春秋篇-03-如此君臣
    东周列国·春秋篇-04-筑台纳媳
    东周列国·春秋篇-05-诸儿文姜
    东周列国·春秋篇-06-管仲拜相
    东周列国·春秋篇-07-尊王攘夷
    东周列国·春秋篇-08-霸主齐桓
    东周列国·春秋篇-09-仁义大旗
    东周列国·春秋篇-10-骊姬乱晋
    东周列国·春秋篇-11-羊皮换相
    东周列国·春秋篇-12-择君图报
    东周列国·春秋篇-13-重耳励志
    东周列国·春秋篇-14-重耳返晋
    东周列国·春秋篇-15-文公成霸
    东周列国·春秋篇-16-罪哭崤山
    东周列国·春秋篇-17-赵盾弑君
    东周列国·春秋篇-18-赵氏孤儿
    东周列国·春秋篇-19-一鸣惊人
    东周列国·春秋篇-20-庄王治楚
    东周列国·春秋篇-21-霸主余韵
    东周列国·春秋篇-22-崔庆之乱
    东周列国·春秋篇-23-晏婴相齐
    东周列国·春秋篇-24-高山仰止
    东周列国·春秋篇-25-逃出昭关
    东周列国·春秋篇-26-专诸剌僚
    东周列国·春秋篇-27-三约伐楚
    东周列国·春秋篇-28-掘墓鞭尸
    东周列国·春秋篇-29-会稽之耻
    东周列国·春秋篇-30-勾践灭吴

    东周列国·战国篇·目录
    东周列国·战国篇-01-晋国内乱
    东周列国·战国篇-02-智伯身丧
    东周列国·战国篇-03-豫让复仇
    东周列国·战国篇-04-文侯改革
    东周列国·战国篇-05-兔死狗烹
    东周列国·战国篇-06-商鞅入秦
    东周列国·战国篇-07-商鞅变法
    东周列国·战国篇-08-骑虎难下
    东周列国·战国篇-09-悲剧落幕
    东周列国·战国篇-10-鬼谷神猜
    东周列国·战国篇-11-妒嫉之毒
    东周列国·战国篇-12-温情早逝
    东周列国·战国篇-13-各走各路
    东周列国·战国篇-14-较量开始
    东周列国·战国篇-15-殊途同归
    东周列国·战国篇-16-改革阻力
    东周列国·战国篇-17-燕子衔泥
    东周列国·战国篇-18-沙丘悲歌
    东周列国·战国篇-19-燕齐之争
    东周列国·战国篇-20-齐国危机
    东周列国·战国篇-21-复国大业
    东周列国·战国篇-22-范雎遭难
    东周列国·战国篇-23-范雎复仇
    东周列国·战国篇-24-浪子回头
    东周列国·战国篇-25-信陵赴赵
    东周列国·战国篇-26-窃符救赵
    东周列国·战国篇-27-奇货可居
    东周列国·战国篇-28-权力更迭
    东周列国·战国篇-29-名垂青史
    东周列国·战国篇-30-胸怀大志
    东周列国·战国篇-31-胸有成竹
    东周列国·战国篇-32-终归一统。


    1. General
    2. Unique ID                      : 297448108285785475154227501324057782064 (0xDFC66BFF566F5601683BF7D2746D2730)
    3. Complete name                  : D:\迅雷下载\[H265]春秋01骊山烽火.mkv
    4. Format                         : Matroska
    5. Format version                 : Version 4
    6. File size                      : 1.40 GiB
    7. Duration                       : 44 min 37 s
    8. Overall bit rate               : 4 478 kb/s
    9. Writing application            : ShanaEncoder
    10. Writing library                : ShanaEncoder
    11. ErrorDetectionType             : Per level 1

    12. Video
    13. ID                             : 1
    14. Format                         : HEVC
    15. Format/Info                    : High Efficiency Video Coding
    16. Format profile                 : Main [email protected]@Main
    17. Codec ID                       : V_MPEGH/ISO/HEVC
    18. Duration                       : 44 min 37 s
    19. Bit rate                       : 4 133 kb/s
    20. Width                          : 1 444 pixels
    21. Height                         : 1 082 pixels
    22. Display aspect ratio           : 4:3
    23. Frame rate mode                : Constant
    24. Frame rate                     : 50.000 FPS
    25. Color space                    : YUV
    26. Chroma subsampling             : 4:2:0
    27. Bit depth                      : 10 bits
    28. Bits/(Pixel*Frame)             : 0.053
    29. Stream size                    : 1.29 GiB (92%)
    30. Writing library                : x265 3.4+33-5fa76b3fc:[Windows][GCC 5.4.0][64 bit] 10bit
    31. Encoding settings              : cpuid=1111039 / frame-threads=4 / numa-pools=16 / wpp / no-pmode / no-pme / no-psnr / no-ssim / log-level=2 / input-csp=1 / input-res=1444x1082 / interlace=0 / total-frames=0 / level-idc=0 / high-tier=1 / uhd-bd=0 / ref=3 / no-allow-non-conformance / no-repeat-headers / annexb / no-aud / no-hrd / info / hash=0 / no-temporal-layers / open-gop / min-keyint=50 / keyint=500 / gop-lookahead=0 / bframes=4 / b-adapt=0 / b-pyramid / bframe-bias=0 / rc-lookahead=15 / lookahead-slices=6 / scenecut=40 / hist-scenecut=0 / radl=0 / no-splice / no-intra-refresh / ctu=64 / min-cu-size=8 / no-rect / no-amp / max-tu-size=32 / tu-inter-depth=1 / tu-intra-depth=1 / limit-tu=0 / rdoq-level=0 / dynamic-rd=0.00 / no-ssim-rd / signhide / no-tskip / nr-intra=0 / nr-inter=0 / no-constrained-intra / strong-intra-smoothing / max-merge=2 / limit-refs=3 / no-limit-modes / me=1 / subme=2 / merange=57 / temporal-mvp / no-frame-dup / no-hme / weightp / no-weightb / no-analyze-src-pics / deblock=0:0 / sao / no-sao-non-deblock / rd=2 / selective-sao=4 / no-early-skip / rskip / fast-intra / no-tskip-fast / no-cu-lossless / no-b-intra / no-splitrd-skip / rdpenalty=0 / psy-rd=0.00 / psy-rdoq=0.00 / no-rd-refine / no-lossless / cbqpoffs=0 / crqpoffs=0 / rc=crf / crf=20.5 / qcomp=0.60 / qpstep=4 / stats-write=0 / stats-read=0 / ipratio=1.40 / pbratio=1.30 / aq-mode=2 / aq-strength=1.00 / cutree / zone-count=0 / no-strict-cbr / qg-size=32 / no-rc-grain / qpmax=69 / qpmin=0 / no-const-vbv / sar=1 / overscan=0 / videoformat=5 / range=0 / colorprim=2 / transfer=2 / colormatrix=2 / chromaloc=0 / display-window=0 / cll=0,0 / min-luma=0 / max-luma=1023 / log2-max-poc-lsb=8 / vui-timing-info / vui-hrd-info / slices=1 / no-opt-qp-pps / no-opt-ref-list-length-pps / no-multi-pass-opt-rps / scenecut-bias=0.05 / hist-threshold=0.03 / no-opt-cu-delta-qp / no-aq-motion / no-hdr10 / no-hdr10-opt / no-dhdr10-opt / no-idr-recovery-sei / analysis-reuse-level=0 / analysis-save-reuse-level=0 / analysis-load-reuse-level=0 / scale-factor=0 / refine-intra=0 / refine-inter=0 / refine-mv=1 / refine-ctu-distortion=0 / no-limit-sao / ctu-info=0 / no-lowpass-dct / refine-analysis-type=0 / copy-pic=1 / max-ausize-factor=1.0 / no-dynamic-refine / no-single-sei / no-hevc-aq / no-svt / no-field / qp-adaptation-range=1.00 / no-scenecut-aware-qpconformance-window-offsets / right=0 / bottom=0 / decoder-max-rate=0 / no-vbv-live-multi-pass
    32. Default                        : Yes
    33. Forced                         : No
    34. Color range                    : Limited

    35. Audio #1
    36. ID                             : 2
    37. Format                         : AC-3
    38. Format/Info                    : Audio Coding 3
    39. Commercial name                : Dolby Digital
    40. Codec ID                       : A_AC3
    41. Duration                       : 44 min 37 s
    42. Bit rate mode                  : Constant
    43. Bit rate                       : 128 kb/s
    44. Channel(s)                     : 2 channels
    45. Channel layout                 : L R
    46. Sampling rate                  : 48.0 kHz
    47. Frame rate                     : 31.250 FPS (1536 SPF)
    48. Bit depth                      : 32 bits
    49. Compression mode               : Lossy
    50. Stream size                    : 40.9 MiB (3%)
    51. Service kind                   : Complete Main
    52. Default                        : Yes
    53. Forced                         : No

    54. Audio #2
    55. ID                             : 3
    56. Format                         : AC-3
    57. Format/Info                    : Audio Coding 3
    58. Commercial name                : Dolby Digital
    59. Codec ID                       : A_AC3
    60. Duration                       : 44 min 37 s
    61. Bit rate mode                  : Constant
    62. Bit rate                       : 128 kb/s
    63. Channel(s)                     : 2 channels
    64. Channel layout                 : L R
    65. Sampling rate                  : 48.0 kHz
    66. Frame rate                     : 31.250 FPS (1536 SPF)
    67. Bit depth                      : 32 bits
    68. Compression mode               : Lossy
    69. Stream size                    : 40.9 MiB (3%)
    70. Service kind                   : Complete Main
    71. Default                        : No
    72. Forced                         : No
    复制代码















    购买主题 已有 38 人购买  本主题需向作者支付 160 大洋 才能浏览
    回复

    使用道具 举报

  • TA的每日心情
    开心
    16 小时前
  • 签到天数: 103 天

    [LV.6]常住居民II

    0

    主题

    900

    帖子

    200

    积分

    高级影迷

    Rank: 4

    积分
    200
    发表于 2022-12-25 18:09:34 | 显示全部楼层
    史上最清晰的版本,一定收藏,多谢多谢。
    回复

    使用道具 举报

  • TA的每日心情
    开心
    前天 23:40
  • 签到天数: 313 天

    [LV.8]以坛为家I

    17

    主题

    1871

    帖子

    223

    积分

    高级影迷

    Rank: 4

    积分
    223
    发表于 2022-12-25 14:56:14 | 显示全部楼层
    这个可以有,之前一直都保存的原盘。。。
    回复

    使用道具 举报

  • TA的每日心情
    开心
    15 小时前
  • 签到天数: 632 天

    [LV.9]以坛为家II

    86

    主题

    7108

    帖子

    781

    积分

    专业影迷

    Rank: 8Rank: 8

    积分
    781
    发表于 2022-12-25 15:26:59 | 显示全部楼层
    感谢分享资源
    回复

    使用道具 举报

  • TA的每日心情
    开心
    4 小时前
  • 签到天数: 384 天

    [LV.9]以坛为家II

    3

    主题

    7617

    帖子

    532

    积分

    专业影迷

    Rank: 8Rank: 8

    积分
    532
    发表于 2022-12-25 15:39:30 | 显示全部楼层
    感谢楼主,多谢分享好作品
    回复

    使用道具 举报

  • TA的每日心情
    开心
    2020-11-21 00:55
  • 签到天数: 8 天

    [LV.3]偶尔看看II

    1

    主题

    877

    帖子

    61

    积分

    初级影迷

    Rank: 2

    积分
    61
    发表于 2022-12-25 16:38:47 | 显示全部楼层
    感谢分享!
    回复

    使用道具 举报

  • TA的每日心情
    开心
    2022-7-24 16:17
  • 签到天数: 1 天

    [LV.1]初来乍到

    0

    主题

    111

    帖子

    16

    积分

    入门影迷

    Rank: 1

    积分
    16
    发表于 2022-12-25 16:56:33 | 显示全部楼层
    文件大了点,假如能保证在每集500m左右就更好了
    回复

    使用道具 举报

  • TA的每日心情
    无聊
    4 小时前
  • 签到天数: 757 天

    [LV.10]以坛为家III

    7

    主题

    7244

    帖子

    746

    积分

    专业影迷

    Rank: 8Rank: 8

    积分
    746
    发表于 2022-12-25 18:04:47 | 显示全部楼层
    感谢分享好资源
    回复

    使用道具 举报

  • TA的每日心情
    慵懒
    4 小时前
  • 签到天数: 686 天

    [LV.9]以坛为家II

    5

    主题

    4476

    帖子

    566

    积分

    专业影迷

    Rank: 8Rank: 8

    积分
    566
    发表于 2022-12-25 18:38:49 | 显示全部楼层
    感谢分享资源
    回复

    使用道具 举报

  • TA的每日心情
    开心
    2022-7-3 20:23
  • 签到天数: 120 天

    [LV.7]常住居民III

    0

    主题

    231

    帖子

    14

    积分

    入门影迷

    Rank: 1

    积分
    14
    发表于 2022-12-25 18:45:49 | 显示全部楼层

    感谢分享好资源
    回复

    使用道具 举报

    您需要登录后才可以回帖 登录 | 立即注册

    本版积分规则

    QQ|Archiver|手机版|小黑屋|影迷乐园

    GMT+8, 2023-2-6 23:59 , Processed in 0.117704 second(s), 31 queries .

    Powered by Discuz! X3.4

    Copyright © 2001-2020, Tencent Cloud.

    快速回复 返回顶部 返回列表