请选择 进入手机版 | 继续访问电脑版

YMLY-影迷乐园-特效字幕 蓝光原盘 1080P 高清动漫电影电视剧

 找回密码
 立即注册
搜索
查看: 171|回复: 24

[大陆] [115+百度][2019][1080P][东宫][国语.简繁英软字幕][陈星旭.彭小苒][52集全][MKV][111.1GB][Goodbye.My.Princess.S01.1080p.NF.WEB-DL.DDP2.0.x264-Ao]

[复制链接]
  • TA的每日心情
    奋斗
    2020-2-21 00:36
  • 签到天数: 656 天

    [LV.9]以坛为家II

    1万

    主题

    2万

    帖子

    10万

    积分

    超级版主

    与齐同行,是最初的梦想,也是一辈子的执着~

    Rank: 16Rank: 16Rank: 16Rank: 16

    积分
    104011

    内测勋章最佳新人十二生肖之猴VIP包月勋章影迷男神小土豪勋章土豪勋章富甲一方精华勋章金话筒主题达人灌水之王

    发表于 2023-1-24 23:46:45 | 显示全部楼层 |阅读模式
    下载说明:

    百度云网盘分享极其不稳定,如有链接失效,请第一时间站内短消息通知我,上线后会第一时间补发!,115礼包如果接收不完整或一直在审核中请使用SHA1,不会用的请自行百度搜索教程


    转自OurBits,感谢原制作者发布。

    Netflix源,内封简繁.多国语言软字幕

    原文件名:东宫.Goodbye.My.Princess.S01.1080p.NF.WEB-DL.DDP2.0.x264-Ao



    ◎译  名 Good Bye, My Princess/电视剧版东宫
    ◎片  名 东宫
    ◎年  代 2019
    ◎产  地 中国大陆
    ◎类  别 爱情 / 古装
    ◎语  言 汉语普通话
    ◎上映日期 2019-02-14(中国大陆)
    ◎IMDb评分  7.9/10 from 213 users
    ◎IMDb链接  https://www.imdb.com/title/tt11156508/
    ◎豆瓣评分 7.6/10 from 234673 users
    ◎豆瓣链接 https://movie.douban.com/subject/25823280/
    ◎集  数 55
    ◎片  长 45分钟
    ◎导  演 李木戈 Muge Li
    ◎编  剧 钱珏 Jue Qian / 王乙涵 Yihan Wang / 胡蓉 Rong Hu / 徐晓霖 Xiaolin Xu / 刘笑 Xiao Liu / 柯宜彤 Yitong Ke / 宋阳明 Yangming Song / 匪我思存 Jingjing Ai
    ◎主  演 陈星旭 Xingxu Chen
           彭小苒 Xiaoran Peng
           魏千翔 Qianxiang Wei
           斯琴高娃 Gaowa Siqin
           罗嘉良 Gallen Law
           杨恭如 Kristy Yang
           王志飞 Zhifei Wang
           张定涵 Dinghan Zhang
           蒋恺 Kai Jiang
           郑晓宁 Xiaoning Zheng
           姚安濂 Anlian Yao
           王传一 KingOne Wang
           吕行 Xing Lü
           邵峰 Feng Shao
           于滨 Bin Yu
           管乐 Le Guan
           赵龙豪 Longhao Zhao
           张彤 Tong Zhang
           高远 Yuan Gao
           王冠 Benson
           张傲月 Aoyue Zhang
           杨彤 Tong Yang
           樊霖锋 Linfeng Fan
           程小蒙 Xiaomeng Cheng
           陈瑾如 Jinru Chen
           田玲 Ling Tian
           蒋昌义 Changyi Jiang
           周显欣 Xianxin Zhou
           顾佳 Jia Gu
           王彤羽 Tongyu Wang
           冯筱童 Xiaotong Feng
           娜吉玛 Nagima
           夏茜 Xi Xia
           张歌 Ge Zhang
           张恒瑞 Hengrui Zhang
           王泇淇 Jiaqi Wang
           郭芮溪 Ruixi Guo
           朱赞锦 Zanjin Zhu
           金玄雨 Xuanyu Jin
           赵仁杰 Renjie Zhao
           王嘉禾 Jiahe Wang
           郭涛 Tao Guo
           王瀚 Han Wang
           魏晓涵 Xiaohan Wei
           陈涛 Tao Chen
           范近轮 Jinlun Fan
           范世德 Shide Fan
           王欢 Huan Wang
           尚斯琪 Siqi Shang
           李建新 Jianxin Li
           路少平 Shaoping Lu
           田鑫雨 Xinyu Tian
           刘煜宸 Yuchen Liu
           蔡军 Jun Cai
           霍艺峰 Yifeng Huo
           贺镪 Qiang He
           李炥禄 Fulu Li
           沈保平 Baoping Shen
           成国栋 Guodong Cheng
           韩龙瑄 Longxuan Han
           韩皓翔 Haoxiang Han
           沈雪炜 Xuewei Shen
           高艺涵 Yihan Gao
           王跃尧 Yueyao Wang
           陆庚宜 Gengyi Lu
           亦涵 Yihan
           郑颖娴 Yingxian Zheng
           刘琮 Cong Liu
           陈张太康 Zhangtaikang Chen
           唐小喜 Xiaoxi Tang
           彭尧 Yao Peng
           张艾 Ai Zhang
           李佳思 Jiasi Li

    ◎简  介

      西州国九公主小枫和中原太子李承鄞,为维护两国和平而联姻,就在两人感情渐入佳境时,小枫突然回忆起李承鄞杀害自己家人的事情,原来他们二人曾彼此深爱,但却双双落入忘川,忘记了彼此。面对权力与爱情,他们将做何选择……

    1. General
    2. Unique ID                      : 317740889243575018235053587997262570943 (0xEF0AAB583B0C1B186E39A6914C1B65BF)
    3. 东宫.Goodbye.My.Princess.S01E06.1080p.NF.WEB-DL.DDP2.0.x264-Ao.mkv
    4. Format                         : Matroska
    5. Format version                 : Version 4
    6. File size                      : 2.23 GiB
    7. Duration                       : 46 min 14 s
    8. Overall bit rate mode          : Variable
    9. Overall bit rate               : 6 917 kb/s
    10. Encoded date                   : UTC 2001-01-01 00:00:00
    11. Writing application            : mkvmerge v34.0.0 ('Sight and Seen') 64-bit
    12. Writing library                : libebml v1.3.9 + libmatroska v1.5.2

    13. Video
    14. ID                             : 1
    15. Format                         : AVC
    16. Format/Info                    : Advanced Video Codec
    17. Format profile                 : [email protected]
    18. Format settings                : CABAC / 3 Ref Frames
    19. Format settings, CABAC         : Yes
    20. Format settings, Reference fra : 3 frames
    21. Codec ID                       : V_MPEG4/ISO/AVC
    22. Duration                       : 46 min 13 s
    23. Bit rate mode                  : Variable
    24. Bit rate                       : 6 810 kb/s
    25. Maximum bit rate               : 10.2 Mb/s
    26. Width                          : 1 920 pixels
    27. Height                         : 1 080 pixels
    28. Display aspect ratio           : 16:9
    29. Frame rate mode                : Constant
    30. Frame rate                     : 25.000 FPS
    31. Color space                    : YUV
    32. Chroma subsampling             : 4:2:0
    33. Bit depth                      : 8 bits
    34. Scan type                      : Progressive
    35. Bits/(Pixel*Frame)             : 0.131
    36. Stream size                    : 2.19 GiB (98%)
    37. Writing library                : x264 core 148 r2715 7e75228
    38. Encoding settings              : cabac=1 / ref=3 / deblock=1:0:0 / analyse=0x1:0x111 / me=umh / subme=10 / psy=1 / psy_rd=1.00:0.00 / mixed_ref=1 / me_range=24 / chroma_me=1 / trellis=2 / 8x8dct=0 / cqm=0 / deadzone=21,11 / fast_pskip=1 / chroma_qp_offset=-2 / threads=6 / lookahead_threads=1 / sliced_threads=0 / nr=0 / decimate=1 / interlaced=0 / bluray_compat=0 / stitchable=1 / constrained_intra=0 / bframes=2 / b_pyramid=0 / b_adapt=2 / b_bias=0 / direct=3 / weightb=1 / open_gop=0 / weightp=2 / keyint=250 / keyint_min=25 / scenecut=0 / intra_refresh=0 / rc_lookahead=50 / rc=2pass / mbtree=1 / bitrate=6810 / ratetol=1.0 / qcomp=0.50 / qpmin=6 / qpmax=51 / qpstep=4 / cplxblur=20.0 / qblur=0.5 / vbv_maxrate=10215 / vbv_bufsize=13620 / nal_hrd=vbr / filler=0 / ip_ratio=1.40 / aq=1:1.00
    39. Default                        : Yes
    40. Forced                         : No

    41. Audio
    42. ID                             : 2
    43. Format                         : E-AC-3
    44. Format/Info                    : Enhanced AC-3
    45. Commercial name                : Dolby Digital Plus
    46. Codec ID                       : A_EAC3
    47. Duration                       : 46 min 14 s
    48. Bit rate mode                  : Constant
    49. Bit rate                       : 128 kb/s
    50. Channel(s)                     : 2 channels
    51. Channel layout                 : L R
    52. Sampling rate                  : 48.0 kHz
    53. Frame rate                     : 31.250 FPS (1536 SPF)
    54. Compression mode               : Lossy
    55. Stream size                    : 42.3 MiB (2%)
    56. Title                          : Mandarin [Original]
    57. Language                       : Chinese
    58. Service kind                   : Complete Main
    59. Default                        : Yes
    60. Forced                         : No

    61. Text #1
    62. ID                             : 3
    63. Format                         : UTF-8
    64. Codec ID                       : S_TEXT/UTF8
    65. Codec ID/Info                  : UTF-8 Plain Text
    66. Duration                       : 40 min 53 s
    67. Bit rate                       : 44 b/s
    68. Count of elements              : 644
    69. Stream size                    : 13.3 KiB (0%)
    70. Title                          : Simplified Chinese
    71. Language                       : Chinese
    72. Default                        : No
    73. Forced                         : No

    74. Text #2
    75. ID                             : 4
    76. Format                         : UTF-8
    77. Codec ID                       : S_TEXT/UTF8
    78. Codec ID/Info                  : UTF-8 Plain Text
    79. Duration                       : 20 min 37 s
    80. Bit rate                       : 0 b/s
    81. Count of elements              : 2
    82. Stream size                    : 36.0 Bytes (0%)
    83. Title                          : Forced
    84. Language                       : Chinese
    85. Default                        : No
    86. Forced                         : Yes

    87. Text #3
    88. ID                             : 5
    89. Format                         : UTF-8
    90. Codec ID                       : S_TEXT/UTF8
    91. Codec ID/Info                  : UTF-8 Plain Text
    92. Duration                       : 43 min 43 s
    93. Bit rate                       : 41 b/s
    94. Count of elements              : 642
    95. Stream size                    : 13.4 KiB (0%)
    96. Title                          : Traditional Chinese
    97. Language                       : Chinese
    98. Default                        : No
    99. Forced                         : No

    100. Text #4
    101. ID                             : 6
    102. Format                         : UTF-8
    103. Codec ID                       : S_TEXT/UTF8
    104. Codec ID/Info                  : UTF-8 Plain Text
    105. Duration                       : 43 min 40 s
    106. Bit rate                       : 80 b/s
    107. Count of elements              : 663
    108. Stream size                    : 25.7 KiB (0%)
    109. Title                          : Arabic
    110. Language                       : Arabic
    111. Default                        : No
    112. Forced                         : No

    113. Text #5
    114. ID                             : 7
    115. Format                         : UTF-8
    116. Codec ID                       : S_TEXT/UTF8
    117. Codec ID/Info                  : UTF-8 Plain Text
    118. Duration                       : 46 min 1 s
    119. Bit rate                       : 55 b/s
    120. Count of elements              : 742
    121. Stream size                    : 18.7 KiB (0%)
    122. Title                          : English
    123. Language                       : English
    124. Default                        : Yes
    125. Forced                         : No

    126. Text #6
    127. ID                             : 8
    128. Format                         : UTF-8
    129. Codec ID                       : S_TEXT/UTF8
    130. Codec ID/Info                  : UTF-8 Plain Text
    131. Duration                       : 43 min 40 s
    132. Bit rate                       : 51 b/s
    133. Count of elements              : 663
    134. Stream size                    : 16.3 KiB (0%)
    135. Title                          : Indonesian
    136. Language                       : Indonesian
    137. Default                        : No
    138. Forced                         : No
    复制代码







    购买主题 已有 4 人购买  本主题需向作者支付 120 大洋 才能浏览
    郑重声明:
    本人提供的所有影视作品均是在网上搜集,任何涉及商业盈利目的均不得使用,否则产生的一切后果将由您自己承担!
    本人不对本人所发布的任何内容负任何法律责任!该下载内容仅做宽带测试使用,请在下载后24小时内删除。请购买正版!
    本人列出的文件没有保存在本站的服务器上,本人仅负责连接,本人对被传播文件的内容一无所知。
    如侵犯视频原作者或发行商版权,请联系本人删除!
    回复

    使用道具 举报

  • TA的每日心情
    开心
    1 小时前
  • 签到天数: 296 天

    [LV.8]以坛为家I

    0

    主题

    2601

    帖子

    566

    积分

    专业影迷

    Rank: 8Rank: 8

    积分
    566
    发表于 2023-1-25 00:04:54 | 显示全部楼层
    感谢楼主分享资源
    回复

    使用道具 举报

  • TA的每日心情
    开心
    半小时前
  • 签到天数: 826 天

    [LV.10]以坛为家III

    0

    主题

    2054

    帖子

    212

    积分

    高级影迷

    Rank: 4

    积分
    212

    小土豪勋章

    发表于 2023-1-25 00:23:30 | 显示全部楼层
    国产剧也不错,支持一下。
    回复

    使用道具 举报

  • TA的每日心情
    擦汗
    19 分钟前
  • 签到天数: 918 天

    [LV.10]以坛为家III

    6

    主题

    7385

    帖子

    487

    积分

    专业影迷

    Rank: 8Rank: 8

    积分
    487
    发表于 2023-1-25 00:24:00 | 显示全部楼层
    感谢分享!!!
    回复

    使用道具 举报

  • TA的每日心情

    昨天 10:13
  • 签到天数: 419 天

    [LV.9]以坛为家II

    35

    主题

    3481

    帖子

    950

    积分

    资深影迷

    Rank: 10Rank: 10Rank: 10

    积分
    950

    小土豪勋章土豪勋章金话筒

    发表于 2023-1-25 07:31:43 | 显示全部楼层
    谢谢版主分享
    回复

    使用道具 举报

  • TA的每日心情
    开心
    昨天 06:08
  • 签到天数: 332 天

    [LV.8]以坛为家I

    16

    主题

    2865

    帖子

    2718

    积分

    稀有影迷

    Rank: 12Rank: 12Rank: 12

    积分
    2718

    小土豪勋章土豪勋章

    发表于 2023-1-25 07:43:20 | 显示全部楼层
    谢谢分享啊
    回复

    使用道具 举报

  • TA的每日心情
    开心
    昨天 09:27
  • 签到天数: 275 天

    [LV.8]以坛为家I

    0

    主题

    1638

    帖子

    254

    积分

    超级影迷

    Rank: 6Rank: 6

    积分
    254
    发表于 2023-1-25 08:53:03 | 显示全部楼层
    谢谢分享啊
    回复

    使用道具 举报

  • TA的每日心情
    开心
    昨天 09:19
  • 签到天数: 917 天

    [LV.10]以坛为家III

    2

    主题

    9464

    帖子

    1651

    积分

    稀有影迷

    Rank: 12Rank: 12Rank: 12

    积分
    1651
    发表于 2023-1-25 09:34:19 | 显示全部楼层
    谢谢楼主分享
    回复

    使用道具 举报

  • TA的每日心情

    昨天 17:26
  • 签到天数: 278 天

    [LV.8]以坛为家I

    2

    主题

    2195

    帖子

    436

    积分

    超级影迷

    Rank: 6Rank: 6

    积分
    436
    发表于 2023-1-25 09:35:30 | 显示全部楼层
    感谢分享!
    回复

    使用道具 举报

  • TA的每日心情
    开心
    前天 09:07
  • 签到天数: 61 天

    [LV.6]常住居民II

    10

    主题

    262

    帖子

    200

    积分

    高级影迷

    Rank: 4

    积分
    200
    发表于 2023-1-25 09:41:37 | 显示全部楼层
    支持,感谢分享
    回复

    使用道具 举报

    您需要登录后才可以回帖 登录 | 立即注册

    本版积分规则

    QQ|Archiver|手机版|小黑屋|影迷乐园

    GMT+8, 2023-2-7 01:04 , Processed in 0.104216 second(s), 27 queries .

    Powered by Discuz! X3.4

    Copyright © 2001-2020, Tencent Cloud.

    快速回复 返回顶部 返回列表