请选择 进入手机版 | 继续访问电脑版

YMLY-影迷乐园-特效字幕 蓝光原盘 1080P 高清动漫电影电视剧

 找回密码
 立即注册
搜索
查看: 179|回复: 23

[日本] [115+百度][2016][1080P][黑暗中的十个女人][国语.繁中.日文软字幕][船越英一郎.成海璃子][10集全][MKV][11.79GB][KKTV.WEB-DL.AAC2.0.H264-Ao]

[复制链接]
  • TA的每日心情
    奋斗
    2020-2-21 00:36
  • 签到天数: 656 天

    [LV.9]以坛为家II

    1万

    主题

    2万

    帖子

    10万

    积分

    超级版主

    与齐同行,是最初的梦想,也是一辈子的执着~

    Rank: 16Rank: 16Rank: 16Rank: 16

    积分
    103963

    内测勋章最佳新人十二生肖之猴VIP包月勋章影迷男神小土豪勋章土豪勋章富甲一方精华勋章金话筒主题达人灌水之王

    发表于 2023-1-25 00:03:49 | 显示全部楼层 |阅读模式
    下载说明:

    百度云网盘分享极其不稳定,如有链接失效,请第一时间站内短消息通知我,上线后会第一时间补发!,115礼包如果接收不完整或一直在审核中请使用SHA1,不会用的请自行百度搜索教程


    转自OurBits,感谢原制作者发布。

    KKTV源,内封繁中.日文软字幕

    经论坛朋友提醒第二集为480p,介意的勿下!!!




    ◎译  名 黑暗中的十个女人/10个嫉妒的女人(港)/Kuroi 10 nin no Onna
    ◎片  名 黒い十人の女
    ◎年  代 2016
    ◎产  地 日本
    ◎类  别 剧情 / 喜剧
    ◎语  言 日语
    ◎上映日期 2016-09-29(日本)
    ◎IMDb评分  7.9/10 from 20 users
    ◎IMDb链接  https://www.imdb.com/title/tt5919998/
    ◎豆瓣评分 8.2/10 from 13248 users
    ◎豆瓣链接 https://movie.douban.com/subject/26845249/
    ◎集  数 10
    ◎片  长 45分钟
    ◎导  演 渡部亮平 Ryôhei Watanabe / 成岛东一郎 Toichiro Narushima / 山本大辅 Daisuke Yamamoto / 丰岛圭介 Keisuke Toyoshima
    ◎编  剧 笨蛋节奏 Bakarhythm / 和田夏十 Natto Wada
    ◎主  演 船越英一郎 Eiichiro Funakoshi
           成海璃子 Riko Narumi
           特林德尔·玲奈 Reina Triendl
           佐藤仁美 Hitomi Satô
           佐野日向子 Hinako Sano
           中山佑一朗 Yuichiro Nakayama
           若村麻由美 Mayumi Wakamura
           水野美纪 Miki Mizuno
           水上剑星 Kensei Mikami
           智顺 Chisun
            Megumi
           水原雪 Yuki Minahara
           平山绫 Aya Hirayama
           松本穗香 Honoka Matsumoto
           白羽由里 Yuri Shirahane
           裵明 Jeong Myung
           安藤裕美 Yumi Ando
           神乐坂惠 Megumi Kagurazaka
           寺田御子 Miko Terada
           大津寻葵 Hiroki Otsu

    ◎简  介

      神田久未(成海璃子 饰)是电视台的前台接待,某日,她邂逅了名为风松吉(船越英一郎 饰)的电视制作人,两人之间碰擦出了恋情的火花。正当神田久未沉浸在恋爱的幸福之中时,却发现风松吉已经结婚了。尽管知道这是一段不伦之恋,但神田久未发现自己依然被风松吉的甜言蜜语和柔情万种深深吸引,就此堕入了无限的漩涡之中。
      某日,一位名叫如野佳代(水野美纪 饰)的女演员找到了神田久未,告诉她自己亦是风松吉的情妇,不仅如此,高人气的美少女演员相叶志乃(特林德尔玲奈 饰)、电视剧制作助理弥上美羽(佐藤仁美 饰)、编剧皐山夏希(MEGUMI 饰)、造型师水川梦(平山绫 饰)等人均沦陷在了风松吉制造的感情漩涡之中,他的情妇林林总总加在一起,竟然有九人之多!而风松吉的妻子风睦(若村麻由美 饰)对九人的存在了如指掌。

    1. General
    2. Unique ID                      : 41622459304624815150659586220459745769 (0x1F5031AECB0B055AE81CA2C8C536E1E9)
    3. 黑暗中的十个女人.S01E05.1080p.KKTV.WEB-DL.AAC2.0.H264-Ao.mkv
    4. Format                         : Matroska
    5. Format version                 : Version 4
    6. File size                      : 1.27 GiB
    7. Duration                       : 43 min 10 s
    8. Overall bit rate               : 4 213 kb/s
    9. Encoded date                   : UTC 2019-04-02 06:23:12
    10. Writing application            : mkvmerge v32.0.0 ('Astral Progressions') 64-bit
    11. Writing library                : libebml v1.3.7 + libmatroska v1.5.0

    12. Video
    13. ID                             : 1
    14. Format                         : AVC
    15. Format/Info                    : Advanced Video Codec
    16. Format profile                 : [email protected]
    17. Format settings                : CABAC / 5 Ref Frames
    18. Format settings, CABAC         : Yes
    19. Format settings, Reference fra : 5 frames
    20. Codec ID                       : V_MPEG4/ISO/AVC
    21. Duration                       : 43 min 10 s
    22. Bit rate                       : 4 000 kb/s
    23. Width                          : 1 920 pixels
    24. Height                         : 1 080 pixels
    25. Display aspect ratio           : 16:9
    26. Frame rate mode                : Constant
    27. Frame rate                     : 29.970 (30000/1001) FPS
    28. Color space                    : YUV
    29. Chroma subsampling             : 4:2:0
    30. Bit depth                      : 8 bits
    31. Scan type                      : Progressive
    32. Bits/(Pixel*Frame)             : 0.064
    33. Stream size                    : 1.21 GiB (95%)
    34. Writing library                : x264 core 142
    35. Encoding settings              : cabac=1 / ref=5 / deblock=1:0:0 / analyse=0x3:0x113 / me=umh / subme=9 / psy=1 / psy_rd=1.00:0.00 / mixed_ref=1 / me_range=32 / chroma_me=1 / trellis=1 / 8x8dct=1 / cqm=0 / deadzone=21,11 / fast_pskip=1 / chroma_qp_offset=-2 / threads=12 / lookahead_threads=1 / sliced_threads=0 / nr=0 / decimate=1 / interlaced=0 / bluray_compat=0 / stitchable=1 / constrained_intra=0 / bframes=3 / b_pyramid=2 / b_adapt=1 / b_bias=0 / direct=3 / weightb=1 / open_gop=0 / weightp=2 / keyint=30 / keyint_min=3 / scenecut=0 / intra_refresh=0 / rc_lookahead=40 / rc=abr / mbtree=1 / bitrate=4000 / ratetol=1.0 / qcomp=0.60 / qpmin=0 / qpmax=69 / qpstep=4 / vbv_maxrate=6000 / vbv_bufsize=9000 / nal_hrd=none / filler=0 / ip_ratio=1.40 / aq=1:1.00
    36. Language                       : English
    37. Default                        : Yes
    38. Forced                         : No

    39. Audio
    40. ID                             : 2
    41. Format                         : AAC LC
    42. Format/Info                    : Advanced Audio Codec Low Complexity
    43. Codec ID                       : A_AAC-2
    44. Duration                       : 43 min 10 s
    45. Bit rate                       : 192 kb/s
    46. Channel(s)                     : 2 channels
    47. Channel layout                 : L R
    48. Sampling rate                  : 44.1 kHz
    49. Frame rate                     : 43.066 FPS (1024 SPF)
    50. Compression mode               : Lossy
    51. Stream size                    : 59.3 MiB (5%)
    52. Language                       : English
    53. Default                        : No
    54. Forced                         : No

    55. Text #1
    56. ID                             : 3
    57. Format                         : UTF-8
    58. Codec ID                       : S_TEXT/UTF8
    59. Codec ID/Info                  : UTF-8 Plain Text
    60. Duration                       : 42 min 38 s
    61. Bit rate                       : 102 b/s
    62. Count of elements              : 653
    63. Stream size                    : 32.0 KiB (0%)
    64. Language                       : Japanese
    65. Default                        : No
    66. Forced                         : No

    67. Text #2
    68. ID                             : 4
    69. Format                         : UTF-8
    70. Codec ID                       : S_TEXT/UTF8
    71. Codec ID/Info                  : UTF-8 Plain Text
    72. Duration                       : 43 min 2 s
    73. Bit rate                       : 68 b/s
    74. Count of elements              : 793
    75. Stream size                    : 21.5 KiB (0%)
    76. Language                       : Chinese
    77. Default                        : Yes
    78. Forced                         : No
    复制代码






    购买主题 已有 8 人购买  本主题需向作者支付 30 大洋 才能浏览
    郑重声明:
    本人提供的所有影视作品均是在网上搜集,任何涉及商业盈利目的均不得使用,否则产生的一切后果将由您自己承担!
    本人不对本人所发布的任何内容负任何法律责任!该下载内容仅做宽带测试使用,请在下载后24小时内删除。请购买正版!
    本人列出的文件没有保存在本站的服务器上,本人仅负责连接,本人对被传播文件的内容一无所知。
    如侵犯视频原作者或发行商版权,请联系本人删除!
    回复

    使用道具 举报

  • TA的每日心情
    开心
    15 小时前
  • 签到天数: 825 天

    [LV.10]以坛为家III

    0

    主题

    2048

    帖子

    210

    积分

    高级影迷

    Rank: 4

    积分
    210

    小土豪勋章

    发表于 2023-1-25 00:21:35 | 显示全部楼层
    日剧不常见啊。
    回复

    使用道具 举报

  • TA的每日心情
    擦汗
    22 小时前
  • 签到天数: 917 天

    [LV.10]以坛为家III

    6

    主题

    7380

    帖子

    485

    积分

    专业影迷

    Rank: 8Rank: 8

    积分
    485
    发表于 2023-1-25 00:23:27 | 显示全部楼层
    感谢分享!!!
    回复

    使用道具 举报

  • TA的每日心情
    擦汗
    13 小时前
  • 签到天数: 421 天

    [LV.9]以坛为家II

    12

    主题

    936

    帖子

    107

    积分

    中级影迷

    Rank: 3Rank: 3

    积分
    107
    发表于 2023-1-25 00:43:06 | 显示全部楼层
    謝謝啦這部很不錯呢,
    回复

    使用道具 举报

  • TA的每日心情

    15 小时前
  • 签到天数: 773 天

    [LV.10]以坛为家III

    2

    主题

    1297

    帖子

    137

    积分

    中级影迷

    Rank: 3Rank: 3

    积分
    137
    发表于 2023-1-25 01:46:05 | 显示全部楼层
    谢谢分享!
    回复

    使用道具 举报

  • TA的每日心情
    开心
    昨天 09:00
  • 签到天数: 318 天

    [LV.8]以坛为家I

    1

    主题

    707

    帖子

    97

    积分

    中级影迷

    Rank: 3Rank: 3

    积分
    97
    发表于 2023-1-25 05:37:47 | 显示全部楼层
    感谢楼主的辛勤劳动
    回复

    使用道具 举报

  • TA的每日心情
    郁闷
    16 小时前
  • 签到天数: 440 天

    [LV.9]以坛为家II

    2

    主题

    2034

    帖子

    126

    积分

    中级影迷

    Rank: 3Rank: 3

    积分
    126
    发表于 2023-1-25 06:34:32 | 显示全部楼层

    謝謝啦這部很不錯呢,
    回复

    使用道具 举报

  • TA的每日心情
    开心
    3 小时前
  • 签到天数: 608 天

    [LV.9]以坛为家II

    0

    主题

    6837

    帖子

    913

    积分

    资深影迷

    Rank: 10Rank: 10Rank: 10

    积分
    913
    发表于 2023-1-25 07:14:19 | 显示全部楼层
    感谢分享好资源
    回复

    使用道具 举报

  • TA的每日心情
    开心
    2021-4-17 08:40
  • 签到天数: 1 天

    [LV.1]初来乍到

    0

    主题

    197

    帖子

    114

    积分

    中级影迷

    Rank: 3Rank: 3

    积分
    114
    发表于 2023-1-25 07:30:47 | 显示全部楼层
    谢谢分享!
    回复

    使用道具 举报

  • TA的每日心情

    12 小时前
  • 签到天数: 419 天

    [LV.9]以坛为家II

    35

    主题

    3481

    帖子

    950

    积分

    资深影迷

    Rank: 10Rank: 10Rank: 10

    积分
    950

    小土豪勋章土豪勋章金话筒

    发表于 2023-1-25 07:31:11 | 显示全部楼层
    谢谢版主分享
    回复

    使用道具 举报

    您需要登录后才可以回帖 登录 | 立即注册

    本版积分规则

    QQ|Archiver|手机版|小黑屋|影迷乐园

    GMT+8, 2023-2-6 23:12 , Processed in 0.120825 second(s), 27 queries .

    Powered by Discuz! X3.4

    Copyright © 2001-2020, Tencent Cloud.

    快速回复 返回顶部 返回列表