请选择 进入手机版 | 继续访问电脑版

YMLY-影迷乐园-特效字幕 蓝光原盘 1080P 高清动漫电影电视剧

 找回密码
 立即注册
搜索
查看: 85|回复: 8

[日本] [115+百度][2018][1080P][大叔之爱S01.第一季][日语.简繁.多国语言软字幕][田中圭.吉田钢太郎][7集全][MKV][9.56GB][NF.WEB-DL.AAC2.0.x264-Ao]

[复制链接]
  • TA的每日心情
    奋斗
    2020-2-21 00:36
  • 签到天数: 656 天

    [LV.9]以坛为家II

    1万

    主题

    2万

    帖子

    10万

    积分

    超级版主

    与齐同行,是最初的梦想,也是一辈子的执着~

    Rank: 16Rank: 16Rank: 16Rank: 16

    积分
    104005

    内测勋章最佳新人十二生肖之猴VIP包月勋章影迷男神小土豪勋章土豪勋章富甲一方精华勋章金话筒主题达人灌水之王

    发表于 2023-1-25 10:47:46 | 显示全部楼层 |阅读模式
    下载说明:

    百度云网盘分享极其不稳定,如有链接失效,请第一时间站内短消息通知我,上线后会第一时间补发!,115礼包如果接收不完整或一直在审核中请使用SHA1,不会用的请自行百度搜索教程


    转自OurBits,感谢原制作者发布。

    Netflix源,内封简繁日.多国语言软字幕

    原文件名:大叔之爱S01.Ossans.Love.S01.1080p.NF.WEB-DL.AAC2.0.x264-Ao



    ◎译  名 大叔之爱 第一季/Ossan's Love/大叔的爱
    ◎片  名 おっさんずラブ
    ◎年  代 2018
    ◎产  地 日本
    ◎类  别 喜剧 / 爱情 / 同性
    ◎语  言 日语
    ◎上映日期 2018-04-21(日本)
    ◎IMDb评分  7.5/10 from 569 users
    ◎IMDb链接  https://www.imdb.com/title/tt8295962/
    ◎豆瓣评分 8.2/10 from 54007 users
    ◎豆瓣链接 https://movie.douban.com/subject/30156023/
    ◎集  数 7
    ◎片  长 40分钟
    ◎导  演 瑠东东一郎 Toichiro Ruto / 山本大辅 Daisuke Yamamoto / 齐藤勇贵 Yûki Saitô
    ◎编  剧 徳尾浩司 Koji Tokuo
    ◎主  演 田中圭 Kei Tanaka
           吉田钢太郎 Kôtarô Yoshida
           林遣都 Kento Hayashi
           涩谷谦人 Kento Shibuya
           吉谷彩子 Ayako Yoshitani
           永濑匡 Nagase Tasuku
           生田智子 Tomoko Ikuta
           春海四方 Shihô Harumi
           安倍乙 Oto Abe
           福松美 Matsumi Fuku
           儿岛一哉 Kazuya Kojima
           伊藤修子 Shûko Itô
           内田理央 Rio Uchida
           金子大地 Daichi Kaneko
           生驹里奈 Rina Ikoma
           真岛秀和 Hidekazu Mashima
           大塚宁宁 Nene Ôtsuka

    ◎简  介

      在某房地产公司供职的业务员春田创一(田中圭 饰)是一个相貌平平的大男孩,他喜欢巨乳美女,日常经常被上司训斥,被后辈挖坑,事业无成,恋爱无能。偶然的机会,他发现部长黑泽武藏(吉田钢太郎 饰)居然偷拍了许多关于他的照片,而且还经常给他写一些暖心却暧昧的鼓励话语。不久,武藏当面向创一表白,并承诺要为了他离婚。五雷轰顶的创一不知所措,殊不知更大的混乱还等在后面。从总公司调来的后辈牧凌太(林遣都 饰)亲切和蔼,他在住进创一的公寓后不久,竟也向创一示爱。不久后,两个基友更为了争夺创一吵翻了天。
      对于创一来说,这可真是可怕至极的桃花期……

    ◎获奖情况

      第5届豆瓣电影年度榜单  (2018)
      评分最高的日剧(提名)

    1. General
    2. Unique ID                      : 35431814147257194110527277064030665607 (0x1AA7EB4FB5913CDC88B6563C2EFA3B87)
    3. Ossans.Love.S01E02.1080p.NF.WEB-DL.AAC2.0.x264-Ao.mkv
    4. Format                         : Matroska
    5. Format version                 : Version 4
    6. File size                      : 1.50 GiB
    7. Duration                       : 40 min 27 s
    8. Overall bit rate mode          : Variable
    9. Overall bit rate               : 5 326 kb/s
    10. Encoded date                   : UTC 2001-01-01 00:00:00
    11. Writing application            : mkvmerge v34.0.0 ('Sight and Seen') 64-bit
    12. Writing library                : libebml v1.3.9 + libmatroska v1.5.2

    13. Video
    14. ID                             : 1
    15. Format                         : AVC
    16. Format/Info                    : Advanced Video Codec
    17. Format profile                 : [email protected]
    18. Format settings                : CABAC / 4 Ref Frames
    19. Format settings, CABAC         : Yes
    20. Format settings, Reference fra : 4 frames
    21. Codec ID                       : V_MPEG4/ISO/AVC
    22. Duration                       : 40 min 27 s
    23. Bit rate mode                  : Variable
    24. Bit rate                       : 5 195 kb/s
    25. Maximum bit rate               : 20.0 Mb/s
    26. Width                          : 1 920 pixels
    27. Height                         : 1 080 pixels
    28. Display aspect ratio           : 16:9
    29. Frame rate mode                : Constant
    30. Frame rate                     : 29.970 (30000/1001) FPS
    31. Color space                    : YUV
    32. Chroma subsampling             : 4:2:0
    33. Bit depth                      : 8 bits
    34. Scan type                      : Progressive
    35. Bits/(Pixel*Frame)             : 0.084
    36. Stream size                    : 1.47 GiB (98%)
    37. Writing library                : x264 core 148 r2715 7e75228
    38. Encoding settings              : cabac=1 / ref=4 / deblock=1:0:0 / analyse=0x3:0x111 / me=umh / subme=10 / psy=1 / psy_rd=1.00:0.00 / mixed_ref=1 / me_range=120 / chroma_me=1 / trellis=2 / 8x8dct=1 / cqm=0 / deadzone=21,11 / fast_pskip=1 / chroma_qp_offset=-2 / threads=8 / lookahead_threads=2 / sliced_threads=0 / nr=0 / decimate=1 / interlaced=0 / bluray_compat=0 / stitchable=1 / constrained_intra=0 / bframes=16 / b_pyramid=2 / b_adapt=2 / b_bias=0 / direct=3 / weightb=1 / open_gop=0 / weightp=2 / keyint=300 / keyint_min=151 / scenecut=0 / intra_refresh=0 / rc_lookahead=250 / rc=crf / mbtree=1 / crf=20.0 / qcomp=0.50 / qpmin=6 / qpmax=51 / qpstep=4 / vbv_maxrate=20000 / vbv_bufsize=25000 / crf_max=0.0 / nal_hrd=vbr / filler=0 / ip_ratio=1.40 / aq=1:0.80
    39. Default                        : Yes
    40. Forced                         : No

    41. Audio
    42. ID                             : 2
    43. Format                         : AAC LC SBR
    44. Format/Info                    : Advanced Audio Codec Low Complexity with Spectral Band Replication
    45. Commercial name                : HE-AAC
    46. Format settings                : Explicit
    47. Codec ID                       : A_AAC-2
    48. Duration                       : 40 min 27 s
    49. Bit rate                       : 128 kb/s
    50. Channel(s)                     : 2 channels
    51. Channel layout                 : L R
    52. Sampling rate                  : 48.0 kHz
    53. Frame rate                     : 23.438 FPS (2048 SPF)
    54. Compression mode               : Lossy
    55. Stream size                    : 37.0 MiB (2%)
    56. Title                          : Japanese [Original]
    57. Language                       : Japanese
    58. Default                        : Yes
    59. Forced                         : No

    60. Text #1
    61. ID                             : 3
    62. Format                         : UTF-8
    63. Codec ID                       : S_TEXT/UTF8
    64. Codec ID/Info                  : UTF-8 Plain Text
    65. Duration                       : 40 min 21 s
    66. Bit rate                       : 53 b/s
    67. Count of elements              : 556
    68. Stream size                    : 15.9 KiB (0%)
    69. Title                          : English
    70. Language                       : English
    71. Default                        : No
    72. Forced                         : No

    73. Text #2
    74. ID                             : 4
    75. Format                         : UTF-8
    76. Codec ID                       : S_TEXT/UTF8
    77. Codec ID/Info                  : UTF-8 Plain Text
    78. Duration                       : 40 min 23 s
    79. Bit rate                       : 57 b/s
    80. Count of elements              : 610
    81. Stream size                    : 16.9 KiB (0%)
    82. Title                          : Indonesian
    83. Language                       : Indonesian
    84. Default                        : No
    85. Forced                         : No

    86. Text #3
    87. ID                             : 5
    88. Format                         : UTF-8
    89. Codec ID                       : S_TEXT/UTF8
    90. Codec ID/Info                  : UTF-8 Plain Text
    91. Duration                       : 40 min 21 s
    92. Bit rate                       : 96 b/s
    93. Count of elements              : 674
    94. Stream size                    : 28.4 KiB (0%)
    95. Title                          : Japanese
    96. Language                       : Japanese
    97. Default                        : No
    98. Forced                         : No

    99. Text #4
    100. ID                             : 6
    101. Format                         : UTF-8
    102. Codec ID                       : S_TEXT/UTF8
    103. Codec ID/Info                  : UTF-8 Plain Text
    104. Duration                       : 40 min 23 s
    105. Bit rate                       : 130 b/s
    106. Count of elements              : 607
    107. Stream size                    : 38.7 KiB (0%)
    108. Title                          : Thai
    109. Language                       : Thai
    110. Default                        : No
    111. Forced                         : No

    112. Text #5
    113. ID                             : 7
    114. Format                         : UTF-8
    115. Codec ID                       : S_TEXT/UTF8
    116. Codec ID/Info                  : UTF-8 Plain Text
    117. Duration                       : 40 min 23 s
    118. Bit rate                       : 67 b/s
    119. Count of elements              : 606
    120. Stream size                    : 20.1 KiB (0%)
    121. Title                          : Vietnamese
    122. Language                       : Vietnamese
    123. Default                        : No
    124. Forced                         : No

    125. Text #6
    126. ID                             : 8
    127. Format                         : UTF-8
    128. Codec ID                       : S_TEXT/UTF8
    129. Codec ID/Info                  : UTF-8 Plain Text
    130. Duration                       : 40 min 23 s
    131. Bit rate                       : 50 b/s
    132. Count of elements              : 611
    133. Stream size                    : 15.1 KiB (0%)
    134. Title                          : Simplified Chinese
    135. Language                       : Chinese
    136. Default                        : No
    137. Forced                         : No

    138. Text #7
    139. ID                             : 9
    140. Format                         : UTF-8
    141. Codec ID                       : S_TEXT/UTF8
    142. Codec ID/Info                  : UTF-8 Plain Text
    143. Duration                       : 40 min 22 s
    144. Bit rate                       : 53 b/s
    145. Count of elements              : 699
    146. Stream size                    : 16.0 KiB (0%)
    147. Title                          : Traditional Chinese
    148. Language                       : Chinese
    149. Default                        : No
    150. Forced                         : No
    复制代码







    购买主题 已有 3 人购买  本主题需向作者支付 30 大洋 才能浏览
    郑重声明:
    本人提供的所有影视作品均是在网上搜集,任何涉及商业盈利目的均不得使用,否则产生的一切后果将由您自己承担!
    本人不对本人所发布的任何内容负任何法律责任!该下载内容仅做宽带测试使用,请在下载后24小时内删除。请购买正版!
    本人列出的文件没有保存在本站的服务器上,本人仅负责连接,本人对被传播文件的内容一无所知。
    如侵犯视频原作者或发行商版权,请联系本人删除!
    回复

    使用道具 举报

  • TA的每日心情
    无聊
    半小时前
  • 签到天数: 788 天

    [LV.10]以坛为家III

    0

    主题

    2384

    帖子

    545

    积分

    专业影迷

    Rank: 8Rank: 8

    积分
    545
    发表于 2023-1-25 11:19:21 | 显示全部楼层
    非常支持了不错哦 很好的~
    回复

    使用道具 举报

  • TA的每日心情

    昨天 08:36
  • 签到天数: 467 天

    [LV.9]以坛为家II

    9

    主题

    4591

    帖子

    316

    积分

    超级影迷

    Rank: 6Rank: 6

    积分
    316
    发表于 2023-1-25 11:42:19 | 显示全部楼层
    谢谢分享好资源
    回复

    使用道具 举报

  • TA的每日心情
    开心
    昨天 17:16
  • 签到天数: 431 天

    [LV.9]以坛为家II

    0

    主题

    2653

    帖子

    136

    积分

    中级影迷

    Rank: 3Rank: 3

    积分
    136
    发表于 2023-1-25 11:44:53 | 显示全部楼层
    感谢楼主分享
    回复

    使用道具 举报

  • TA的每日心情
    奋斗
    昨天 10:47
  • 签到天数: 698 天

    [LV.9]以坛为家II

    0

    主题

    4672

    帖子

    495

    积分

    专业影迷

    Rank: 8Rank: 8

    积分
    495
    发表于 2023-1-25 11:56:39 | 显示全部楼层

    谢谢分享好资源
    回复

    使用道具 举报

  • TA的每日心情

    昨天 05:29
  • 签到天数: 706 天

    [LV.9]以坛为家II

    5

    主题

    2566

    帖子

    168

    积分

    高级影迷

    Rank: 4

    积分
    168
    发表于 2023-1-25 13:14:46 | 显示全部楼层
    超级好片啊啊
    回复

    使用道具 举报

  • TA的每日心情
    开心
    4 天前
  • 签到天数: 845 天

    [LV.10]以坛为家III

    2

    主题

    2354

    帖子

    134

    积分

    中级影迷

    Rank: 3Rank: 3

    积分
    134
    发表于 2023-1-25 16:29:37 | 显示全部楼层
    谢谢分享好资源
    回复

    使用道具 举报

  • TA的每日心情
    擦汗
    半小时前
  • 签到天数: 422 天

    [LV.9]以坛为家II

    12

    主题

    938

    帖子

    107

    积分

    中级影迷

    Rank: 3Rank: 3

    积分
    107
    发表于 2023-1-25 23:19:38 | 显示全部楼层
    感謝樓主的發佈了,支持下
    回复

    使用道具 举报

  • TA的每日心情
    开心
    昨天 19:28
  • 签到天数: 384 天

    [LV.9]以坛为家II

    3

    主题

    7617

    帖子

    532

    积分

    专业影迷

    Rank: 8Rank: 8

    积分
    532
    发表于 2023-1-28 18:42:34 | 显示全部楼层
    谢谢大佬分享
    回复

    使用道具 举报

    您需要登录后才可以回帖 登录 | 立即注册

    本版积分规则

    QQ|Archiver|手机版|小黑屋|影迷乐园

    GMT+8, 2023-2-7 00:51 , Processed in 0.092497 second(s), 27 queries .

    Powered by Discuz! X3.4

    Copyright © 2001-2020, Tencent Cloud.

    快速回复 返回顶部 返回列表