请选择 进入手机版 | 继续访问电脑版

YMLY-影迷乐园-特效字幕 蓝光原盘 1080P 高清动漫电影电视剧

 找回密码
 立即注册
搜索
查看: 157|回复: 15

[香港] [百度][1981][2160P][大侠霍元甲][国粤双语.外挂简繁字幕][米雪.黄元申][20集全][MKV][92.19GB]

[复制链接]
  • TA的每日心情
    奋斗
    2020-2-21 00:36
  • 签到天数: 656 天

    [LV.9]以坛为家II

    1万

    主题

    2万

    帖子

    10万

    积分

    超级版主

    与齐同行,是最初的梦想,也是一辈子的执着~

    Rank: 16Rank: 16Rank: 16Rank: 16

    积分
    103994

    内测勋章最佳新人十二生肖之猴VIP包月勋章影迷男神小土豪勋章土豪勋章富甲一方精华勋章金话筒主题达人灌水之王

    发表于 2023-1-25 11:13:08 | 显示全部楼层 |阅读模式
    下载说明:

    百度云网盘分享极其不稳定,如有链接失效,请第一时间站内短消息通知我,上线后会第一时间补发!




    ◎译  名 大侠霍元甲/The Legendary Fok/万里长城永不倒
    ◎片  名 大俠霍元甲
    ◎年  代 1981
    ◎产  地 中国香港
    ◎类  别 剧情 / 动作 / 传记 / 历史
    ◎语  言 粤语
    ◎上映日期 1981-09-28(中国香港) / 1984-05-06(中国大陆)
    ◎IMDb评分  7.4/10 from 16 users
    ◎IMDb链接  https://www.imdb.com/title/tt10048802/
    ◎豆瓣评分 8.4/10 from 7695 users
    ◎豆瓣链接 https://movie.douban.com/subject/2210246/
    ◎集  数 20
    ◎片  长 45分钟
    ◎导  演 徐小明 Siu Ming Tsui
    ◎编  剧 徐小明 Siu Ming Tsui / 郑文华 Man-Wah Cheng / 赵志坚 Chi-Kin Chiu
    ◎主  演 米雪 Michelle Mee
           黄元申 Yuen-San Wong
           梁小龙 Siu-Lung Leung
           董骠 Bill Tung
           黎汉持 Hon Chi Lai
           魏秋桦 Chiu-hua Wei
           谭荣杰 Wing-Git Tam
           陈东 Tung Chen
           陈婉薇
           徐小明 Siu Ming Tsui
           郑雷 Lei Cheng
           甘山 San Gam
           麦天恩 Mak Tin Yan
           简肇强

    ◎简  介

      故事发生在民国初年,霍家和赵家是当今武林界内的两大巨头,一直在为了谁才是秘宗拳的正宗的问题争得面红耳赤。霍元甲(黄元申 饰)是霍家的四子,人们都不看好从小就体弱多病的他,亦不准备传授他武功,然而,悟性极高的霍元甲居然自行悟出了迷踪拳,并在两家人约定比武的当天使出迷踪拳,打败了对手程天啸,哪知道程天啸受到了巨大的打击,竟然撒手人寰,他的徒弟陈真(梁小龙 饰)为了替师傅报仇,拜了霍元甲为师,伺机而动。
      一行人来到了天津,武功高强的霍元甲很快就吸引了日本人的注意,遭到了追杀,他们只能带着倩男(米雪 饰)逃往北京,设立了精武门。

    1. General
    2. Unique ID                      : 31677497077084874381127001802027502459 (0x17D4DD304F51CF6413D01AD459C30B7B)
    3. 大侠霍元甲18.mkv
    4. Format                         : Matroska
    5. Format version                 : Version 4
    6. File size                      : 4.60 GiB
    7. Duration                       : 45 min 54 s
    8. Overall bit rate               : 14.3 Mb/s
    9. Writing application            : Lavf57.83.100
    10. Writing library                : Lavf57.83.100
    11. ErrorDetectionType             : Per level 1

    12. Video
    13. ID                             : 1
    14. Format                         : AVC
    15. Format/Info                    : Advanced Video Codec
    16. Format profile                 : [email protected]
    17. Format settings                : CABAC / 4 Ref Frames
    18. Format settings, CABAC         : Yes
    19. Format settings, Reference fra : 4 frames
    20. Codec ID                       : V_MPEG4/ISO/AVC
    21. Duration                       : 42 min 43 s
    22. Bit rate                       : 3 781 kb/s
    23. Nominal bit rate               : 15.0 Mb/s
    24. Width                          : 3 840 pixels
    25. Height                         : 2 160 pixels
    26. Display aspect ratio           : 16:9
    27. Frame rate mode                : Variable
    28. Frame rate                     : 25.000 FPS
    29. Color space                    : YUV
    30. Chroma subsampling             : 4:2:0
    31. Bit depth                      : 8 bits
    32. Scan type                      : Progressive
    33. Bits/(Pixel*Frame)             : 0.018
    34. Stream size                    : 1.13 GiB (25%)
    35. Writing library                : x264 core 155
    36. Encoding settings              : cabac=1 / ref=1 / deblock=1:0:0 / analyse=0x3:0x3 / me=dia / subme=1 / psy=1 / psy_rd=1.00:0.00 / mixed_ref=0 / me_range=16 / chroma_me=1 / trellis=0 / 8x8dct=1 / cqm=0 / deadzone=21,11 / fast_pskip=1 / chroma_qp_offset=0 / threads=6 / lookahead_threads=1 / sliced_threads=0 / nr=0 / decimate=1 / interlaced=0 / bluray_compat=0 / constrained_intra=0 / bframes=3 / b_pyramid=2 / b_adapt=1 / b_bias=0 / direct=1 / weightb=1 / open_gop=0 / weightp=1 / keyint=250 / keyint_min=25 / scenecut=40 / intra_refresh=0 / rc=abr / mbtree=0 / bitrate=15000 / ratetol=1.0 / qcomp=0.60 / qpmin=0 / qpmax=69 / qpstep=4 / ip_ratio=1.40 / pb_ratio=1.30 / aq=1:1.00
    37. Default                        : Yes
    38. Forced                         : No

    39. Audio #1
    40. ID                             : 2
    41. Format                         : AAC LC
    42. Format/Info                    : Advanced Audio Codec Low Complexity
    43. Codec ID                       : A_AAC-2
    44. Duration                       : 45 min 54 s
    45. Bit rate                       : 320 kb/s
    46. Channel(s)                     : 2 channels
    47. Channel layout                 : L R
    48. Sampling rate                  : 44.1 kHz
    49. Frame rate                     : 43.066 FPS (1024 SPF)
    50. Compression mode               : Lossy
    51. Stream size                    : 105 MiB (2%)
    52. Writing library                : Lavc57.107.100 aac
    53. Default                        : Yes
    54. Forced                         : No

    55. Audio #2
    56. ID                             : 3
    57. Format                         : AAC LC
    58. Format/Info                    : Advanced Audio Codec Low Complexity
    59. Codec ID                       : A_AAC-2
    60. Duration                       : 42 min 43 s
    61. Bit rate                       : 128 kb/s
    62. Channel(s)                     : 2 channels
    63. Channel layout                 : L R
    64. Sampling rate                  : 44.1 kHz
    65. Frame rate                     : 43.066 FPS (1024 SPF)
    66. Compression mode               : Lossy
    67. Stream size                    : 39.1 MiB (1%)
    68. Writing library                : Lavc57.107.100 aac
    69. Default                        : No
    70. Forced                         : No
    复制代码





    购买主题 已有 1 人购买  本主题需向作者支付 80 大洋 才能浏览
    郑重声明:
    本人提供的所有影视作品均是在网上搜集,任何涉及商业盈利目的均不得使用,否则产生的一切后果将由您自己承担!
    本人不对本人所发布的任何内容负任何法律责任!该下载内容仅做宽带测试使用,请在下载后24小时内删除。请购买正版!
    本人列出的文件没有保存在本站的服务器上,本人仅负责连接,本人对被传播文件的内容一无所知。
    如侵犯视频原作者或发行商版权,请联系本人删除!
    回复

    使用道具 举报

  • TA的每日心情

    昨天 08:36
  • 签到天数: 467 天

    [LV.9]以坛为家II

    9

    主题

    4591

    帖子

    316

    积分

    超级影迷

    Rank: 6Rank: 6

    积分
    316
    发表于 2023-1-25 11:41:23 | 显示全部楼层
    谢谢分享好资源
    回复

    使用道具 举报

  • TA的每日心情
    开心
    昨天 17:16
  • 签到天数: 431 天

    [LV.9]以坛为家II

    0

    主题

    2653

    帖子

    136

    积分

    中级影迷

    Rank: 3Rank: 3

    积分
    136
    发表于 2023-1-25 11:44:28 | 显示全部楼层
    感谢楼主分享
    回复

    使用道具 举报

  • TA的每日心情
    奋斗
    昨天 10:47
  • 签到天数: 698 天

    [LV.9]以坛为家II

    0

    主题

    4672

    帖子

    495

    积分

    专业影迷

    Rank: 8Rank: 8

    积分
    495
    发表于 2023-1-25 11:57:02 | 显示全部楼层

    谢谢分享好资源
    回复

    使用道具 举报

  • TA的每日心情
    难过
    昨天 08:00
  • 签到天数: 625 天

    [LV.9]以坛为家II

    0

    主题

    6950

    帖子

    358

    积分

    超级影迷

    Rank: 6Rank: 6

    积分
    358
    发表于 2023-1-25 13:08:24 | 显示全部楼层
    感谢楼主分享
    回复

    使用道具 举报

  • TA的每日心情
    开心
    昨天 06:08
  • 签到天数: 309 天

    [LV.8]以坛为家I

    0

    主题

    2756

    帖子

    162

    积分

    高级影迷

    Rank: 4

    积分
    162
    发表于 2023-1-25 13:57:41 | 显示全部楼层
    感谢分享!!
    回复

    使用道具 举报

  • TA的每日心情
    开心
    昨天 11:55
  • 签到天数: 216 天

    [LV.7]常住居民III

    6

    主题

    519

    帖子

    160

    积分

    高级影迷

    Rank: 4

    积分
    160
    发表于 2023-1-25 14:52:10 | 显示全部楼层
    非常感谢楼主分享!!!
    回复

    使用道具 举报

  • TA的每日心情
    开心
    3 天前
  • 签到天数: 85 天

    [LV.6]常住居民II

    0

    主题

    1574

    帖子

    135

    积分

    中级影迷

    Rank: 3Rank: 3

    积分
    135
    发表于 2023-1-25 22:07:24 | 显示全部楼层
    谢谢分享霍元甲
    回复

    使用道具 举报

  • TA的每日心情
    开心
    昨天 08:30
  • 签到天数: 483 天

    [LV.9]以坛为家II

    1

    主题

    5864

    帖子

    572

    积分

    专业影迷

    Rank: 8Rank: 8

    积分
    572
    发表于 2023-1-25 22:45:23 | 显示全部楼层
    谢谢大佬分享
    回复

    使用道具 举报

  • TA的每日心情
    郁闷
    昨天 00:40
  • 签到天数: 7 天

    [LV.3]偶尔看看II

    0

    主题

    105

    帖子

    14

    积分

    入门影迷

    Rank: 1

    积分
    14
    发表于 2023-1-26 00:11:02 | 显示全部楼层
    感谢分享!
    回复

    使用道具 举报

    您需要登录后才可以回帖 登录 | 立即注册

    本版积分规则

    QQ|Archiver|手机版|小黑屋|影迷乐园

    GMT+8, 2023-2-7 00:02 , Processed in 0.101938 second(s), 27 queries .

    Powered by Discuz! X3.4

    Copyright © 2001-2020, Tencent Cloud.

    快速回复 返回顶部 返回列表