请选择 进入手机版 | 继续访问电脑版

YMLY-影迷乐园-特效字幕 蓝光原盘 1080P 高清动漫电影电视剧

 找回密码
 立即注册
搜索
查看: 183|回复: 20

[大陆] [百度][2006][1080P][士兵突击][国语.简中硬字幕][王宝强.陈思诚][30集全][MKV][20.53GB]

[复制链接]
  • TA的每日心情
    奋斗
    2020-2-21 00:36
  • 签到天数: 656 天

    [LV.9]以坛为家II

    1万

    主题

    2万

    帖子

    10万

    积分

    超级版主

    与齐同行,是最初的梦想,也是一辈子的执着~

    Rank: 16Rank: 16Rank: 16Rank: 16

    积分
    104010

    内测勋章最佳新人十二生肖之猴VIP包月勋章影迷男神小土豪勋章土豪勋章富甲一方精华勋章金话筒主题达人灌水之王

    发表于 2023-1-25 11:24:10 | 显示全部楼层 |阅读模式
    下载说明:

    百度云网盘分享极其不稳定,如有链接失效,请第一时间站内短消息通知我,上线后会第一时间补发!




    ◎译  名 Soldiers Sortie
    ◎片  名 士兵突击
    ◎年  代 2006
    ◎产  地 中国大陆
    ◎类  别 剧情
    ◎语  言 普通话
    ◎上映日期 2006-12-24(中国大陆)
    ◎IMDb评分  8.1/10 from 160 users
    ◎IMDb链接  https://www.imdb.com/title/tt1501154/
    ◎豆瓣评分 9.5/10 from 206053 users
    ◎豆瓣链接 https://movie.douban.com/subject/2154096/
    ◎集  数 30
    ◎片  长 45分钟
    ◎导  演 康洪雷 Honglei Kang
    ◎编  剧 兰晓龙 Xiaolong Lan
    ◎主  演 王宝强 Baoqiang Wang
           陈思诚 Sicheng Chen
           段奕宏 Yihong Duan
           张译 Yi Zhang
           邢佳栋 Jiadong Xing
           张国强 Guoqiang Zhang
           李晨 Chen Li
           范雷 Lei Fan
           高峰 Feng Gao
           罗京民 Jingmin Luo
           王大治 Dazhi Wang
           刘天佐 Tianzuo Liu
           李泓良 Hongliang Li
           李博 Bo Li
           左腾云 Tengyun Zuo
           曹克难 Kenan Cao
           陈文波 Wenbo Chen
           李京 Jing Li
           李胜荣 Shengrong Li
           王国强 Guoqiang Wang
           尚雨哲 ShangYuZhe
           
           赵志君 Zhijun Zhao
           马艺家 Yijia Ma
           张兵海 Binghai Zhang
           刁海明 Haiming Diao
           朱时春 Shichun Zhu

    ◎简  介

      木讷的许三多(王宝强)没进军营,就因看见坦克时“举手投降”招来以“不抛弃、不放弃”精神闻名全团的“钢七连”连长高城(张国强)的反感,入营后,班长史今(张译)成为他的依靠,副班长也是老乡的伍六一(邢家栋)却因他的笨拙将其视为肉中刺。新兵训练结束后,许三多被分到偏远艰苦的后 勤管道维护班五班,一同来部队的老乡成才(陈思成)则去了钢七连。
      被现实打垮的五班班长老马(范雷)随随便便的一句话被许三多当作命令接收,凭借憨厚的执拗劲,他用六个月时间完成了一件所有人都认为不可能完成的任务,令五班整体感动,精神面貌焕然一新,自己也因此来到钢七连,重见班长史今。喜悦过后,一个个看似不可能跨过去的槛在他脚下一字排开。而在这一过程中,他从史今、伍六一、高城、老A袁朗(段奕宏)及吴哲(李晨)等人身上学到了很多很多,从一个“孬兵”变成了一个“好兵”。

    1. General
    2. Unique ID                      : 80597984920706057837953138327533445351 (0x3CA29B757F215318A072C6A2E804E0E7)
    3. 士兵突击(1080P国语中字)_25.mkv
    4. Format                         : Matroska
    5. Format version                 : Version 4
    6. File size                      : 811 MiB
    7. Duration                       : 46 min 39 s
    8. Overall bit rate               : 2 431 kb/s
    9. Encoded date                   : UTC 2020-03-25 07:48:27
    10. Writing application            : mkvmerge v19.0.0 ('Brave Captain') 32-bit
    11. Writing library                : libebml v1.3.5 + libmatroska v1.4.8

    12. Video
    13. ID                             : 1
    14. Format                         : AVC
    15. Format/Info                    : Advanced Video Codec
    16. Format profile                 : [email protected]
    17. Format settings                : CABAC / 4 Ref Frames
    18. Format settings, CABAC         : Yes
    19. Format settings, Reference fra : 4 frames
    20. Codec ID                       : V_MPEG4/ISO/AVC
    21. Duration                       : 46 min 37 s
    22. Bit rate                       : 2 306 kb/s
    23. Width                          : 1 920 pixels
    24. Height                         : 1 080 pixels
    25. Display aspect ratio           : 16:9
    26. Frame rate mode                : Constant
    27. Frame rate                     : 25.000 FPS
    28. Color space                    : YUV
    29. Chroma subsampling             : 4:2:0
    30. Bit depth                      : 8 bits
    31. Scan type                      : Progressive
    32. Bits/(Pixel*Frame)             : 0.044
    33. Stream size                    : 769 MiB (95%)
    34. Default                        : Yes
    35. Forced                         : No

    36. Audio
    37. ID                             : 2
    38. Format                         : AAC LC
    39. Format/Info                    : Advanced Audio Codec Low Complexity
    40. Codec ID                       : A_AAC-2
    41. Duration                       : 46 min 39 s
    42. Bit rate                       : 124 kb/s
    43. Channel(s)                     : 2 channels
    44. Channel layout                 : L R
    45. Sampling rate                  : 48.0 kHz
    46. Frame rate                     : 46.875 FPS (1024 SPF)
    47. Compression mode               : Lossy
    48. Stream size                    : 41.4 MiB (5%)
    49. Language                       : Chinese
    50. Default                        : Yes
    51. Forced                         : No
    复制代码





    购买主题 已有 9 人购买  本主题需向作者支付 30 大洋 才能浏览
    郑重声明:
    本人提供的所有影视作品均是在网上搜集,任何涉及商业盈利目的均不得使用,否则产生的一切后果将由您自己承担!
    本人不对本人所发布的任何内容负任何法律责任!该下载内容仅做宽带测试使用,请在下载后24小时内删除。请购买正版!
    本人列出的文件没有保存在本站的服务器上,本人仅负责连接,本人对被传播文件的内容一无所知。
    如侵犯视频原作者或发行商版权,请联系本人删除!
    回复

    使用道具 举报

  • TA的每日心情

    昨天 08:36
  • 签到天数: 467 天

    [LV.9]以坛为家II

    9

    主题

    4591

    帖子

    316

    积分

    超级影迷

    Rank: 6Rank: 6

    积分
    316
    发表于 2023-1-25 11:39:54 | 显示全部楼层
    谢谢分享好资源
    回复

    使用道具 举报

  • TA的每日心情
    奋斗
    昨天 10:47
  • 签到天数: 698 天

    [LV.9]以坛为家II

    0

    主题

    4672

    帖子

    495

    积分

    专业影迷

    Rank: 8Rank: 8

    积分
    495
    发表于 2023-1-25 11:57:19 | 显示全部楼层

    谢谢分享好资源
    回复

    使用道具 举报

  • TA的每日心情
    难过
    昨天 08:00
  • 签到天数: 625 天

    [LV.9]以坛为家II

    0

    主题

    6950

    帖子

    358

    积分

    超级影迷

    Rank: 6Rank: 6

    积分
    358
    发表于 2023-1-25 12:07:27 | 显示全部楼层
    感谢分享好电影啊
    回复

    使用道具 举报

  • TA的每日心情
    无聊
    2023-1-30 16:12
  • 签到天数: 113 天

    [LV.6]常住居民II

    0

    主题

    194

    帖子

    30

    积分

    初级影迷

    Rank: 2

    积分
    30
    发表于 2023-1-25 12:27:55 | 显示全部楼层
    谢谢分享高清的经典
    回复

    使用道具 举报

  • TA的每日心情
    奋斗
    3 天前
  • 签到天数: 490 天

    [LV.9]以坛为家II

    1

    主题

    851

    帖子

    160

    积分

    高级影迷

    Rank: 4

    积分
    160
    发表于 2023-1-25 12:32:18 | 显示全部楼层
    感谢分享!
    回复

    使用道具 举报

  • TA的每日心情
    开心
    昨天 11:39
  • 签到天数: 420 天

    [LV.9]以坛为家II

    2

    主题

    3570

    帖子

    943

    积分

    资深影迷

    Rank: 10Rank: 10Rank: 10

    积分
    943

    小土豪勋章土豪勋章

    发表于 2023-1-25 12:43:06 | 显示全部楼层
    感谢分享!
    回复

    使用道具 举报

  • TA的每日心情
    难过
    昨天 08:00
  • 签到天数: 625 天

    [LV.9]以坛为家II

    0

    主题

    6950

    帖子

    358

    积分

    超级影迷

    Rank: 6Rank: 6

    积分
    358
    发表于 2023-1-25 13:08:49 | 显示全部楼层
    感谢楼主分享
    回复

    使用道具 举报

  • TA的每日心情
    开心
    昨天 01:27
  • 签到天数: 620 天

    [LV.9]以坛为家II

    1

    主题

    2576

    帖子

    313

    积分

    超级影迷

    Rank: 6Rank: 6

    积分
    313
    发表于 2023-1-25 14:49:13 | 显示全部楼层
    楼主辛苦,收藏了啊
    回复

    使用道具 举报

  • TA的每日心情
    开心
    3 天前
  • 签到天数: 232 天

    [LV.7]常住居民III

    1

    主题

    2313

    帖子

    188

    积分

    高级影迷

    Rank: 4

    积分
    188
    发表于 2023-1-25 17:30:46 | 显示全部楼层
    感谢分享精彩视频
    回复

    使用道具 举报

    您需要登录后才可以回帖 登录 | 立即注册

    本版积分规则

    QQ|Archiver|手机版|小黑屋|影迷乐园

    GMT+8, 2023-2-7 01:01 , Processed in 0.091380 second(s), 27 queries .

    Powered by Discuz! X3.4

    Copyright © 2001-2020, Tencent Cloud.

    快速回复 返回顶部 返回列表