请选择 进入手机版 | 继续访问电脑版

YMLY-影迷乐园-特效字幕 蓝光原盘 1080P 高清动漫电影电视剧

 找回密码
 立即注册
搜索
查看: 165|回复: 20

[大陆] [百度][2001][1080P][上错花轿嫁对郎][国语无字][黄奕.李佳璘][20集全][MP4][11.71GB]

[复制链接]
  • TA的每日心情
    奋斗
    2020-2-21 00:36
  • 签到天数: 656 天

    [LV.9]以坛为家II

    1万

    主题

    2万

    帖子

    10万

    积分

    超级版主

    与齐同行,是最初的梦想,也是一辈子的执着~

    Rank: 16Rank: 16Rank: 16Rank: 16

    积分
    103998

    内测勋章最佳新人十二生肖之猴VIP包月勋章影迷男神小土豪勋章土豪勋章富甲一方精华勋章金话筒主题达人灌水之王

    发表于 2023-1-25 11:29:49 | 显示全部楼层 |阅读模式
    下载说明:

    百度云网盘分享极其不稳定,如有链接失效,请第一时间站内短消息通知我,上线后会第一时间补发!




    ◎译  名 Wrong Carriage, Right Groom
    ◎片  名 上错花轿嫁对郎
    ◎年  代 2001
    ◎产  地 中国大陆
    ◎类  别 剧情 / 喜剧 / 爱情 / 古装
    ◎语  言 汉语普通话
    ◎上映日期 2001-01-02(中国大陆)
    ◎豆瓣评分 8.5/10 from 132264 users
    ◎豆瓣链接 https://movie.douban.com/subject/2229576/
    ◎集  数 20
    ◎片  长 43分钟
    ◎导  演 张子恩 Zi-en Zhang
    ◎编  剧 阡陌 Qian Mo / 席绢 Juan Xi
    ◎主  演 黄奕 Yi Huang
           李琳 LIn Li
           聂远 Yuan Nie
           沙溢 Yi Sha
           师小红 Xiaohong Shi
           郑毓芝 Yuzhi Zheng
           涓子 Juan Zi
           陈佳妍 Jiayan Chen
           徐婧灵 Jingling Xu
           王岗 Gang Wang
           崔奕 Yi Cui
           徐光 Guang Xu
           惠娟艳 Juanyan Hui
           王菁华 Jinghua Wang
           刘培清 Peiqing Liu
           刘欣翰 Xinhan Liu
           金永钢 Yonggang Jin
           闾汉彪 Hanbiao Lu

    ◎简  介

      这天在扬州城有两个小姐同时出嫁了,一个是城中富商的小姐杜冰雁(李琳 饰),一个是城中武师的女儿李玉湖(黄奕 饰)。两位小姐都有着外人看似美满的姻缘,冰雁将嫁给柳州巨商齐府的三公子齐天磊(聂远 饰),而玉湖将嫁给当朝的重臣袁不屈(师小红 饰)大将军,但其中的苦水只有她们自己知道。齐天磊体弱多病,为了冲喜才赶着完成婚事;而袁不屈出身前在李家受尽白眼,为了报复才决意要娶玉湖。正当两位小姐在花轿上暗自垂泪的时候,突然下起了磅礴大雨。两队娶亲的队伍同时躲到了同一座庙里躲雨,岂料雨过天晴后轿夫竟然抬错了花轿!于是两段离奇曲折的姻缘开始了。

    1. General
    2. 上错花轿嫁对郎第16集-蓝光1080P.mp4
    3. Format                         : MPEG-4
    4. Format profile                 : Base Media
    5. Codec ID                       : isom (isom/iso2/avc1/mp41)
    6. File size                      : 597 MiB
    7. Duration                       : 42 min 43 s
    8. Overall bit rate               : 1 953 kb/s
    9. Writing application            : Lavf58.41.100

    10. Video
    11. ID                             : 1
    12. Format                         : AVC
    13. Format/Info                    : Advanced Video Codec
    14. Format profile                 : [email protected]
    15. Format settings                : CABAC / 3 Ref Frames
    16. Format settings, CABAC         : Yes
    17. Format settings, Reference fra : 3 frames
    18. Codec ID                       : avc1
    19. Codec ID/Info                  : Advanced Video Coding
    20. Duration                       : 42 min 43 s
    21. Bit rate                       : 1 822 kb/s
    22. Width                          : 1 408 pixels
    23. Height                         : 1 080 pixels
    24. Display aspect ratio           : 4:3
    25. Frame rate mode                : Constant
    26. Frame rate                     : 25.000 FPS
    27. Color space                    : YUV
    28. Chroma subsampling             : 4:2:0
    29. Bit depth                      : 8 bits
    30. Scan type                      : Progressive
    31. Bits/(Pixel*Frame)             : 0.048
    32. Stream size                    : 557 MiB (93%)
    33. Color range                    : Limited
    34. Color primaries                : BT.709
    35. Transfer characteristics       : BT.709
    36. Matrix coefficients            : BT.709
    37. Codec configuration box        : avcC

    38. Audio
    39. ID                             : 2
    40. Format                         : AAC LC
    41. Format/Info                    : Advanced Audio Codec Low Complexity
    42. Codec ID                       : mp4a-40-2
    43. Duration                       : 42 min 43 s
    44. Bit rate mode                  : Constant
    45. Bit rate                       : 124 kb/s
    46. Channel(s)                     : 2 channels
    47. Channel layout                 : L R
    48. Sampling rate                  : 44.1 kHz
    49. Frame rate                     : 43.066 FPS (1024 SPF)
    50. Compression mode               : Lossy
    51. Stream size                    : 38.0 MiB (6%)
    52. Default                        : Yes
    53. Alternate group                : 1
    复制代码



    购买主题 已有 7 人购买  本主题需向作者支付 10 大洋 才能浏览
    郑重声明:
    本人提供的所有影视作品均是在网上搜集,任何涉及商业盈利目的均不得使用,否则产生的一切后果将由您自己承担!
    本人不对本人所发布的任何内容负任何法律责任!该下载内容仅做宽带测试使用,请在下载后24小时内删除。请购买正版!
    本人列出的文件没有保存在本站的服务器上,本人仅负责连接,本人对被传播文件的内容一无所知。
    如侵犯视频原作者或发行商版权,请联系本人删除!
    回复

    使用道具 举报

  • TA的每日心情

    昨天 08:36
  • 签到天数: 467 天

    [LV.9]以坛为家II

    9

    主题

    4591

    帖子

    316

    积分

    超级影迷

    Rank: 6Rank: 6

    积分
    316
    发表于 2023-1-25 11:43:06 | 显示全部楼层
    谢谢分享好资源
    回复

    使用道具 举报

  • TA的每日心情
    奋斗
    昨天 10:47
  • 签到天数: 698 天

    [LV.9]以坛为家II

    0

    主题

    4672

    帖子

    495

    积分

    专业影迷

    Rank: 8Rank: 8

    积分
    495
    发表于 2023-1-25 11:55:47 | 显示全部楼层

    谢谢分享好资源
    回复

    使用道具 举报

  • TA的每日心情
    开心
    昨天 11:39
  • 签到天数: 420 天

    [LV.9]以坛为家II

    2

    主题

    3570

    帖子

    943

    积分

    资深影迷

    Rank: 10Rank: 10Rank: 10

    积分
    943

    小土豪勋章土豪勋章

    发表于 2023-1-25 12:42:44 | 显示全部楼层
    感谢分享!
    回复

    使用道具 举报

  • TA的每日心情
    难过
    昨天 08:00
  • 签到天数: 625 天

    [LV.9]以坛为家II

    0

    主题

    6950

    帖子

    358

    积分

    超级影迷

    Rank: 6Rank: 6

    积分
    358
    发表于 2023-1-25 13:10:52 | 显示全部楼层
    感谢楼主分享
    回复

    使用道具 举报

  • TA的每日心情
    开心
    3 天前
  • 签到天数: 313 天

    [LV.8]以坛为家I

    17

    主题

    1871

    帖子

    223

    积分

    高级影迷

    Rank: 4

    积分
    223
    发表于 2023-1-25 13:44:05 | 显示全部楼层
    感谢楼主分享
    回复

    使用道具 举报

  • TA的每日心情
    开心
    昨天 06:08
  • 签到天数: 309 天

    [LV.8]以坛为家I

    0

    主题

    2756

    帖子

    162

    积分

    高级影迷

    Rank: 4

    积分
    162
    发表于 2023-1-25 13:57:25 | 显示全部楼层
    感谢分享!!
    回复

    使用道具 举报

  • TA的每日心情
    开心
    3 天前
  • 签到天数: 391 天

    [LV.9]以坛为家II

    5

    主题

    3123

    帖子

    624

    积分

    专业影迷

    Rank: 8Rank: 8

    积分
    624

    小土豪勋章

    发表于 2023-1-25 14:17:30 | 显示全部楼层
    感谢lz分享!
    回复

    使用道具 举报

  • TA的每日心情
    开心
    3 天前
  • 签到天数: 232 天

    [LV.7]常住居民III

    1

    主题

    2313

    帖子

    188

    积分

    高级影迷

    Rank: 4

    积分
    188
    发表于 2023-1-25 17:29:00 | 显示全部楼层
    感谢分享精彩视频
    回复

    使用道具 举报

  • TA的每日心情
    郁闷
    昨天 08:10
  • 签到天数: 990 天

    [LV.10]以坛为家III

    14

    主题

    1104

    帖子

    618

    积分

    专业影迷

    Rank: 8Rank: 8

    积分
    618
    发表于 2023-1-25 23:53:41 | 显示全部楼层
    这个经典啊 谢谢分享
    回复

    使用道具 举报

    您需要登录后才可以回帖 登录 | 立即注册

    本版积分规则

    QQ|Archiver|手机版|小黑屋|影迷乐园

    GMT+8, 2023-2-7 00:15 , Processed in 0.107729 second(s), 27 queries .

    Powered by Discuz! X3.4

    Copyright © 2001-2020, Tencent Cloud.

    快速回复 返回顶部 返回列表