请选择 进入手机版 | 继续访问电脑版

YMLY-影迷乐园-特效字幕 蓝光原盘 1080P 高清动漫电影电视剧

 找回密码
 立即注册
搜索
查看: 120|回复: 20

[大陆] [百度][2012][1080P][向着炮火前进][国语.简中硬字幕][吴奇隆.甘婷婷][40集全][MP4][43.59GB]

[复制链接]
  • TA的每日心情
    奋斗
    2020-2-21 00:36
  • 签到天数: 656 天

    [LV.9]以坛为家II

    1万

    主题

    2万

    帖子

    10万

    积分

    超级版主

    与齐同行,是最初的梦想,也是一辈子的执着~

    Rank: 16Rank: 16Rank: 16Rank: 16

    积分
    103960

    内测勋章最佳新人十二生肖之猴VIP包月勋章影迷男神小土豪勋章土豪勋章富甲一方精华勋章金话筒主题达人灌水之王

    发表于 2023-1-25 11:40:54 | 显示全部楼层 |阅读模式
    下载说明:

    百度云网盘分享极其不稳定,如有链接失效,请第一时间站内短消息通知我,上线后会第一时间补发!




    ◎译  名 向着胜利前进
    ◎片  名 向着炮火前进
    ◎年  代 2012
    ◎产  地 中国大陆
    ◎类  别 剧情 / 动作 / 战争
    ◎语  言 汉语普通话
    ◎上映日期 2012-10(中国大陆)
    ◎豆瓣评分 4.1/10 from 2878 users
    ◎豆瓣链接 https://movie.douban.com/subject/10554940/
    ◎集  数 35
    ◎片  长 40分钟
    ◎导  演 林建中 Jianzhong Lin
    ◎编  剧 杨超 Chao Yang / 杨林彦 Linyan Yang / 王璋 Zhang Wang
    ◎主  演 吴奇隆 Nicky Wu
           甘婷婷 Tingting Gan
           王新 Xin Wang
           谢孟伟 Mengwei Xie
           魏炳桦 Binghua Wei
           陶慧娜 Huina Tao
           张少华 Shaohua Zhang
           杨奇鸣 Qiming Yang
           赵泽文 Zewen Zhao
           李东翰 Donghan Li
           刘俊孝 Dean Liu
           武家辉 Jiahui Wu
           王宇泽 Yuze Wang
           张钧译 Junyi Zhang
           罗栋 Dong Luo

    ◎简  介

      本故事发生在在1945年初,一架运输飞机装载着最新密码机和密钥本运往日本。我国北方某省团城,我军独立三团团长刘建功(王新 饰)正带领三团,在团城外围狐牙岭一带,与据守团城的八重带日军生死搏斗着。装载着密码机和密钥本的日军运输机在经过虎牙岭上空时,正好赶上狐牙岭土匪头子雷子枫(吴奇隆 饰)母亲大寿,雷子枫为给母亲听个响,在实验着的大炮竟歪打正着击中了运输机。正好落在了正在虎牙岭守猎的石敢当(谢孟伟 饰)和爷爷面前,石敢当意外得到密码箱。这时,取的战斗胜利的刘建功也奉命赶到飞虎岭和特派员上官于飞(甘婷婷 饰)寻找密码箱和密钥本,并很快发现了密码本。这时日军也赶到了.....

    1. General
    2. 37.mp4
    3. Format                         : MPEG-4
    4. Format profile                 : Base Media
    5. Codec ID                       : isom (isom/iso2/avc1/mp41)
    6. File size                      : 979 MiB
    7. Duration                       : 45 min 22 s
    8. Overall bit rate               : 3 017 kb/s

    9. Video
    10. ID                             : 1
    11. Format                         : AVC
    12. Format/Info                    : Advanced Video Codec
    13. Format profile                 : [email protected]
    14. Format settings                : CABAC / 5 Ref Frames
    15. Format settings, CABAC         : Yes
    16. Format settings, Reference fra : 5 frames
    17. Codec ID                       : avc1
    18. Codec ID/Info                  : Advanced Video Coding
    19. Duration                       : 45 min 22 s
    20. Bit rate                       : 2 882 kb/s
    21. Width                          : 1 902 pixels
    22. Height                         : 1 062 pixels
    23. Display aspect ratio           : 16:9
    24. Frame rate mode                : Constant
    25. Frame rate                     : 25.000 FPS
    26. Color space                    : YUV
    27. Chroma subsampling             : 4:2:0
    28. Bit depth                      : 8 bits
    29. Scan type                      : Progressive
    30. Bits/(Pixel*Frame)             : 0.057
    31. Stream size                    : 935 MiB (96%)
    32. Writing library                : x264 core 148
    33. Encoding settings              : cabac=1 / ref=5 / deblock=1:0:0 / analyse=0x3:0x113 / me=hex / subme=8 / psy=1 / psy_rd=1.00:0.00 / mixed_ref=1 / me_range=16 / chroma_me=1 / trellis=2 / 8x8dct=1 / cqm=0 / deadzone=21,11 / fast_pskip=1 / chroma_qp_offset=-2 / threads=33 / lookahead_threads=5 / sliced_threads=0 / nr=0 / decimate=1 / interlaced=0 / bluray_compat=0 / constrained_intra=0 / bframes=3 / b_pyramid=2 / b_adapt=1 / b_bias=0 / direct=3 / weightb=1 / open_gop=0 / weightp=2 / keyint=250 / keyint_min=25 / scenecut=40 / intra_refresh=0 / rc_lookahead=50 / rc=crf / mbtree=1 / crf=25.0 / qcomp=0.60 / qpmin=0 / qpmax=69 / qpstep=4 / vbv_maxrate=5000 / vbv_bufsize=10000 / crf_max=0.0 / nal_hrd=none / filler=0 / ip_ratio=1.40 / aq=1:1.00
    34. Color range                    : Limited
    35. Color primaries                : BT.709
    36. Transfer characteristics       : BT.709
    37. Matrix coefficients            : BT.709
    38. Codec configuration box        : avcC

    39. Audio
    40. ID                             : 2
    41. Format                         : AAC LC
    42. Format/Info                    : Advanced Audio Codec Low Complexity
    43. Codec ID                       : mp4a-40-2
    44. Duration                       : 45 min 22 s
    45. Duration_LastFrame             : -14 ms
    46. Bit rate mode                  : Constant
    47. Bit rate                       : 128 kb/s
    48. Channel(s)                     : 2 channels
    49. Channel layout                 : L R
    50. Sampling rate                  : 44.1 kHz
    51. Frame rate                     : 43.066 FPS (1024 SPF)
    52. Compression mode               : Lossy
    53. Stream size                    : 41.5 MiB (4%)
    54. Default                        : Yes
    55. Alternate group                : 1
    复制代码





    购买主题 已有 2 人购买  本主题需向作者支付 50 大洋 才能浏览
    郑重声明:
    本人提供的所有影视作品均是在网上搜集,任何涉及商业盈利目的均不得使用,否则产生的一切后果将由您自己承担!
    本人不对本人所发布的任何内容负任何法律责任!该下载内容仅做宽带测试使用,请在下载后24小时内删除。请购买正版!
    本人列出的文件没有保存在本站的服务器上,本人仅负责连接,本人对被传播文件的内容一无所知。
    如侵犯视频原作者或发行商版权,请联系本人删除!
    回复

    使用道具 举报

  • TA的每日心情
    奋斗
    12 小时前
  • 签到天数: 698 天

    [LV.9]以坛为家II

    0

    主题

    4672

    帖子

    495

    积分

    专业影迷

    Rank: 8Rank: 8

    积分
    495
    发表于 2023-1-25 11:57:44 | 显示全部楼层

    谢谢分享好资源
    回复

    使用道具 举报

  • TA的每日心情
    开心
    11 小时前
  • 签到天数: 420 天

    [LV.9]以坛为家II

    2

    主题

    3570

    帖子

    943

    积分

    资深影迷

    Rank: 10Rank: 10Rank: 10

    积分
    943

    小土豪勋章土豪勋章

    发表于 2023-1-25 12:40:31 | 显示全部楼层
    感谢分享!
    回复

    使用道具 举报

  • TA的每日心情
    慵懒
    昨天 13:26
  • 签到天数: 15 天

    [LV.4]偶尔看看III

    0

    主题

    24

    帖子

    26

    积分

    初级影迷

    Rank: 2

    积分
    26
    发表于 2023-1-25 14:34:18 | 显示全部楼层
    感谢楼主分享
    回复

    使用道具 举报

  • TA的每日心情
    开心
    13 小时前
  • 签到天数: 748 天

    [LV.9]以坛为家II

    0

    主题

    2040

    帖子

    114

    积分

    中级影迷

    Rank: 3Rank: 3

    积分
    114
    发表于 2023-1-25 15:20:36 | 显示全部楼层

    感谢分享!
    回复

    使用道具 举报

  • TA的每日心情
    擦汗
    1 小时前
  • 签到天数: 387 天

    [LV.9]以坛为家II

    41

    主题

    1582

    帖子

    187

    积分

    高级影迷

    Rank: 4

    积分
    187
    发表于 2023-1-25 17:04:44 | 显示全部楼层
    是不是那个加特林奇侠的抗日神剧?
    回复

    使用道具 举报

  • TA的每日心情
    开心
    前天 12:01
  • 签到天数: 232 天

    [LV.7]常住居民III

    1

    主题

    2313

    帖子

    188

    积分

    高级影迷

    Rank: 4

    积分
    188
    发表于 2023-1-25 17:27:53 | 显示全部楼层
    感谢分享精彩视频
    回复

    使用道具 举报

  • TA的每日心情
    开心
    14 小时前
  • 签到天数: 483 天

    [LV.9]以坛为家II

    1

    主题

    5864

    帖子

    572

    积分

    专业影迷

    Rank: 8Rank: 8

    积分
    572
    发表于 2023-1-25 22:50:54 | 显示全部楼层
    谢谢大佬分享
    回复

    使用道具 举报

  • TA的每日心情

    23 分钟前
  • 签到天数: 795 天

    [LV.10]以坛为家III

    42

    主题

    7365

    帖子

    2912

    积分

    稀有影迷

    Rank: 12Rank: 12Rank: 12

    积分
    2912
    发表于 2023-1-25 23:29:17 | 显示全部楼层
    感谢楼主分享
    回复

    使用道具 举报

  • TA的每日心情
    擦汗
    23 小时前
  • 签到天数: 507 天

    [LV.9]以坛为家II

    6

    主题

    5155

    帖子

    692

    积分

    专业影迷

    Rank: 8Rank: 8

    积分
    692

    小土豪勋章

    发表于 2023-1-26 00:14:40 | 显示全部楼层
    感謝資源分享!
    回复

    使用道具 举报

    您需要登录后才可以回帖 登录 | 立即注册

    本版积分规则

    QQ|Archiver|手机版|小黑屋|影迷乐园

    GMT+8, 2023-2-6 23:06 , Processed in 0.095487 second(s), 27 queries .

    Powered by Discuz! X3.4

    Copyright © 2001-2020, Tencent Cloud.

    快速回复 返回顶部 返回列表