请选择 进入手机版 | 继续访问电脑版

YMLY-影迷乐园-特效字幕 蓝光原盘 1080P 高清动漫电影电视剧

 找回密码
 立即注册
搜索
查看: 110|回复: 13

[大陆] [百度][2003][1080P][玉帝传奇][国语.简中硬字幕][黑子.韩青][20集全][MP4][11.66GB]

[复制链接]
  • TA的每日心情
    奋斗
    2020-2-21 00:36
  • 签到天数: 656 天

    [LV.9]以坛为家II

    1万

    主题

    2万

    帖子

    10万

    积分

    超级版主

    与齐同行,是最初的梦想,也是一辈子的执着~

    Rank: 16Rank: 16Rank: 16Rank: 16

    积分
    103998

    内测勋章最佳新人十二生肖之猴VIP包月勋章影迷男神小土豪勋章土豪勋章富甲一方精华勋章金话筒主题达人灌水之王

    发表于 2023-1-25 12:27:15 | 显示全部楼层 |阅读模式
    下载说明:

    百度云网盘分享极其不稳定,如有链接失效,请第一时间站内短消息通知我,上线后会第一时间补发!




    ◎片  名 玉帝传奇
    ◎年  代 2003
    ◎产  地 中国大陆
    ◎类  别 剧情 / 动作 / 爱情 / 奇幻 / 古装
    ◎语  言 汉语普通话
    ◎上映日期 2003(中国大陆)
    ◎豆瓣评分 7.1/10 from 404 users
    ◎豆瓣链接 https://movie.douban.com/subject/5413788/
    ◎集  数 25
    ◎片  长 50分钟
    ◎导  演 曹荣 Wing Cho
    ◎主  演 黑子 Zi Hei
           韩青 Qing Han
           孙宁 Ning Sun
           李京泽 Jingze Li
           傅亨 Heng Fu
           戴娆 Rao Dai
           胡小庭 Xiaoting Hu
           郝一平 Yiping Hao
           章劼 Jie Zhang
           纪元 Yuan Ji
           王紫菲 Zifei Wang
           陆建艺 Jianyi Lu

    ◎简  介

      《玉帝传奇》借助中国古代神话传说中的人物,演绎出一段段人间的挚爱真情。玉帝与演对手戏的玉兄,成为全剧矛盾纠葛的中心线索;他们独特、复杂、多层面的性格特征,在戏剧冲突中得以充分展示。   御兄、御弟的争斗,是在老玉帝选择接班人的比武中开始的。御兄本性顽劣,争强斗狠,不服任何人;御弟却与御兄性格迥异,虽聪慧过人,武功高强,却以慈善之心待人,一腔悲悯情怀。在比武中,玉弟不忍伤害玉兄,战成平手。关键时刻,玉帝笃守诚信;玉兄则不择手段,几乎成功继位。一直到加冕仪式将要开始,玉兄的凶残嘴脸才败露,仓皇逃往人间。而此时的玉弟,正默默承受着内心极度痛苦的煎熬:他要为自己的仁慈付出代价,那就是不仅失去皇位,还将失去自己心爱的水雾仙子。   玉帝(御兄逃窜后,御弟继位)是中国人心目中的理想人物。他宽厚善良,大慈大悲,疾恶如仇,不惜牺牲,拯救百姓于水火之中。《玉》剧在塑造玉帝这个人物时,无疑给他戴上了理想化的光环。但《玉》剧中的玉帝毕竟是人,因而感人至深。他曾以最大限度的慈善宽容对待凶残丑恶,有时几乎到了懦弱的程度,幻想着感化他们。残酷的现实使玉帝渐渐清醒、成熟,懂得了除恶务尽。《玉》剧中的玉帝,保持了中国人最易接受的性格特征,如慈善为本,邪不压正,善恶终有报等,表现出中国传统文化中特有的人文思想。玉帝的结局,终于战胜邪恶,得到了爱情、友情、亲情,也是人们熟悉的大团圆结局。 片断照(18张)  御兄是《玉》剧中的大恶大凶。但在人物性格的处理上,并未脸谱化,而是细腻的表现了他的渐变过程,以及性格的多层面、复杂性,刻画出一个有血有肉的活生生的人物。御兄恃才自傲,漠视他人;只要自己想得到的,就不顾一切,不择手段。比武争帝位时,御兄明知御弟在忍让他,却讥笑玉弟懦弱,不是敢作敢为、果断行事之人。应该说,这时玉兄和玉弟的冲突,还基本上是性格差异所致。待到玉兄逃到凡间,隐姓埋名、卧薪尝胆,聚妖闹事时,他性格中本质的东西才逐渐显露,原来具有的骁勇、聪颖变成凶残、阴毒。御兄不顾一切地争夺帝位,同时是在不顾一切地争夺水雾仙子。当他败逃凡间,遇到碧瑶时,怦然心动,把所有的失落都转变成浓烈的爱意。   在御兄残忍、冷酷的心中,惟有对碧瑶的一缕情丝尚存。即使碧瑶认清了御兄的丑恶,与他刀枪相见时,御兄仍没有放弃幻想。这时,我们已经不知道,御兄穷毕精力争夺的东西,是天宫的龙椅,还是心中所爱?抑或是两者皆有?孰轻孰重?

    1. General
    2. 20.mp4
    3. Format                         : MPEG-4
    4. Format profile                 : Base Media
    5. Codec ID                       : isom (isom/iso2/avc1/mp41)
    6. File size                      : 595 MiB
    7. Duration                       : 44 min 2 s
    8. Overall bit rate mode          : Variable
    9. Overall bit rate               : 1 888 kb/s
    10. Writing application            : Lavf58.12.100

    11. Video
    12. ID                             : 1
    13. Format                         : AVC
    14. Format/Info                    : Advanced Video Codec
    15. Format profile                 : [email protected]
    16. Format settings                : CABAC / 4 Ref Frames
    17. Format settings, CABAC         : Yes
    18. Format settings, Reference fra : 4 frames
    19. Codec ID                       : avc1
    20. Codec ID/Info                  : Advanced Video Coding
    21. Duration                       : 44 min 2 s
    22. Bit rate                       : 1 756 kb/s
    23. Width                          : 1 450 pixels
    24. Height                         : 1 080 pixels
    25. Display aspect ratio           : 4:3
    26. Frame rate mode                : Constant
    27. Frame rate                     : 25.000 FPS
    28. Color space                    : YUV
    29. Chroma subsampling             : 4:2:0
    30. Bit depth                      : 8 bits
    31. Scan type                      : Progressive
    32. Bits/(Pixel*Frame)             : 0.045
    33. Stream size                    : 553 MiB (93%)
    34. Color range                    : Limited
    35. Color primaries                : BT.601 PAL
    36. Transfer characteristics       : BT.470 System B/G
    37. Matrix coefficients            : BT.470 System B/G
    38. Codec configuration box        : avcC

    39. Audio
    40. ID                             : 2
    41. Format                         : AAC LC
    42. Format/Info                    : Advanced Audio Codec Low Complexity
    43. Codec ID                       : mp4a-40-2
    44. Duration                       : 44 min 2 s
    45. Bit rate mode                  : Variable
    46. Bit rate                       : 126 kb/s
    47. Maximum bit rate               : 130 kb/s
    48. Channel(s)                     : 2 channels
    49. Channel layout                 : L R
    50. Sampling rate                  : 44.1 kHz
    51. Frame rate                     : 43.066 FPS (1024 SPF)
    52. Compression mode               : Lossy
    53. Stream size                    : 39.6 MiB (7%)
    54. Default                        : Yes
    55. Alternate group                : 1
    复制代码







    购买主题 已有 2 人购买  本主题需向作者支付 30 大洋 才能浏览
    郑重声明:
    本人提供的所有影视作品均是在网上搜集,任何涉及商业盈利目的均不得使用,否则产生的一切后果将由您自己承担!
    本人不对本人所发布的任何内容负任何法律责任!该下载内容仅做宽带测试使用,请在下载后24小时内删除。请购买正版!
    本人列出的文件没有保存在本站的服务器上,本人仅负责连接,本人对被传播文件的内容一无所知。
    如侵犯视频原作者或发行商版权,请联系本人删除!
    回复

    使用道具 举报

  • TA的每日心情
    开心
    昨天 11:39
  • 签到天数: 420 天

    [LV.9]以坛为家II

    2

    主题

    3570

    帖子

    943

    积分

    资深影迷

    Rank: 10Rank: 10Rank: 10

    积分
    943

    小土豪勋章土豪勋章

    发表于 2023-1-25 12:40:03 | 显示全部楼层
    感谢分享!
    回复

    使用道具 举报

  • TA的每日心情
    开心
    2020-11-21 00:55
  • 签到天数: 8 天

    [LV.3]偶尔看看II

    1

    主题

    877

    帖子

    61

    积分

    初级影迷

    Rank: 2

    积分
    61
    发表于 2023-1-25 16:49:08 | 显示全部楼层
    感谢分享!
    回复

    使用道具 举报

  • TA的每日心情
    开心
    3 天前
  • 签到天数: 232 天

    [LV.7]常住居民III

    1

    主题

    2313

    帖子

    188

    积分

    高级影迷

    Rank: 4

    积分
    188
    发表于 2023-1-25 17:26:14 | 显示全部楼层
    感谢分享精彩资源
    回复

    使用道具 举报

  • TA的每日心情
    开心
    昨天 23:45
  • 签到天数: 207 天

    [LV.7]常住居民III

    0

    主题

    1250

    帖子

    284

    积分

    超级影迷

    Rank: 6Rank: 6

    积分
    284
    发表于 2023-1-25 20:20:29 | 显示全部楼层
    感谢分享!
    回复

    使用道具 举报

  • TA的每日心情
    奋斗
    22 分钟前
  • 签到天数: 796 天

    [LV.10]以坛为家III

    42

    主题

    7366

    帖子

    2912

    积分

    稀有影迷

    Rank: 12Rank: 12Rank: 12

    积分
    2912
    发表于 2023-1-25 23:28:34 | 显示全部楼层
    感谢楼主分享
    回复

    使用道具 举报

  • TA的每日心情
    无聊
    昨天 00:41
  • 签到天数: 468 天

    [LV.9]以坛为家II

    0

    主题

    1032

    帖子

    231

    积分

    高级影迷

    Rank: 4

    积分
    231
    发表于 2023-1-26 01:22:33 | 显示全部楼层
    感谢楼主分享
    回复

    使用道具 举报

  • TA的每日心情
    开心
    昨天 07:18
  • 签到天数: 825 天

    [LV.10]以坛为家III

    0

    主题

    2048

    帖子

    210

    积分

    高级影迷

    Rank: 4

    积分
    210

    小土豪勋章

    发表于 2023-1-26 08:42:39 | 显示全部楼层
    这类剧当时全在电视上演的。
    回复

    使用道具 举报

  • TA的每日心情

    昨天 08:36
  • 签到天数: 467 天

    [LV.9]以坛为家II

    9

    主题

    4591

    帖子

    316

    积分

    超级影迷

    Rank: 6Rank: 6

    积分
    316
    发表于 2023-1-26 10:00:19 | 显示全部楼层
    谢谢分享好资源
    回复

    使用道具 举报

  • TA的每日心情
    开心
    昨天 08:30
  • 签到天数: 483 天

    [LV.9]以坛为家II

    1

    主题

    5864

    帖子

    572

    积分

    专业影迷

    Rank: 8Rank: 8

    积分
    572
    发表于 2023-1-26 10:23:07 | 显示全部楼层
    感谢分享精彩资源
    回复

    使用道具 举报

    您需要登录后才可以回帖 登录 | 立即注册

    本版积分规则

    QQ|Archiver|手机版|小黑屋|影迷乐园

    GMT+8, 2023-2-7 00:22 , Processed in 0.101351 second(s), 27 queries .

    Powered by Discuz! X3.4

    Copyright © 2001-2020, Tencent Cloud.

    快速回复 返回顶部 返回列表