请选择 进入手机版 | 继续访问电脑版

YMLY-影迷乐园-特效字幕 蓝光原盘 1080P 高清动漫电影电视剧

 找回密码
 立即注册
搜索
查看: 118|回复: 9

[大陆] [百度][2009][1080P][春光灿烂猪九妹][国语.简中硬字幕][陈乔恩.乔任梁][29集全][MP4][45.95GB]

[复制链接]
  • TA的每日心情
    奋斗
    2020-2-21 00:36
  • 签到天数: 656 天

    [LV.9]以坛为家II

    1万

    主题

    2万

    帖子

    10万

    积分

    超级版主

    与齐同行,是最初的梦想,也是一辈子的执着~

    Rank: 16Rank: 16Rank: 16Rank: 16

    积分
    105329

    内测勋章最佳新人十二生肖之猴VIP包月勋章影迷男神小土豪勋章土豪勋章富甲一方精华勋章金话筒主题达人灌水之王

    发表于 2023-1-25 12:44:24 | 显示全部楼层 |阅读模式
    下载说明:

    百度云网盘分享极其不稳定,如有链接失效,请第一时间站内短消息通知我,上线后会第一时间补发!




    ◎片  名 春光灿烂猪九妹
    ◎年  代 2011
    ◎产  地 中国大陆
    ◎类  别 
    ◎语  言 汉语普通话
    ◎上映日期 2011-01-23
    ◎豆瓣评分 5.8/10 from 1021 users
    ◎豆瓣链接 https://movie.douban.com/subject/4780459/
    ◎集  数 35
    ◎片  长 40分钟
    ◎导  演 范小天 Xiaotian Fan
    ◎编  剧 王远 Yuan Wang / 范小天 Xiaotian Fan / 张超 Chao Zhang / 王勃 Bo Wang
    ◎主  演 陈乔恩 Joe Chen
           乔任梁 RenLiang Qiao
           邓莎 Sha Deng
           徐海乔 Haiqiao Xu
           陈龙 Long Chen
           刘小锋 Xiaofeng Liu
           刘孜 Zi Liu
           江奇霖 Qilin Jiang
           刘锐 Rui Liu
           张杰 Jie Zhang
           姜广涛 Guangtao Jiang
           寇占文 Zhan-Wen Keu
           郭芷妍 Nikita
           闵春晓 Chunxiao Min
           张明明 Mingming Zhang
           张磊 Lei Zhang
           王浩钧 Haojun Wang
           徐震 Zhen Xu

    ◎简  介

      朱(猪)九妹、钱多文、孙志国、李增原为上界啸天战士,因为种种原因被贬入凡间投胎做人。
      二郎神发现魔界入侵中土,为了抵御侵袭,他找到了四位啸天战士,朱(猪)九妹,钱多文,李增,孙志国四人从平凡甚至有着这样那样的缺点的普通人,最终成长为团结一致、目标明确、英勇善战的巨灵战士,这四位战士毅然决然接受使命寻找对付魔界的办法。
      在途中他们经过中天世界的磨砺,感受到了菩提老祖舍生取义的高尚情操,受到二郎神、飞天等一批性格各异,为了伟大理想、为了保护他人,而情愿自我牺牲的伟大精神,经受住了中天里幻界的诱惑而逐渐成熟,最终炼成了禁戒法术,成功捍卫人间和平安宁的故事。

    1. General
    2. Format                         : MPEG-4
    3. Format profile                 : Base Media
    4. Codec ID                       : isom (isom/iso2/avc1/mp41)
    5. File size                      : 1.57 GiB
    6. Duration                       : 43 min 46 s
    7. Overall bit rate mode          : Variable
    8. Overall bit rate               : 5 139 kb/s
    9. Writing application            : Lavf57.25.100

    10. Video
    11. ID                             : 1
    12. Format                         : AVC
    13. Format/Info                    : Advanced Video Codec
    14. Format profile                 : [email protected]
    15. Format settings                : CABAC / 4 Ref Frames
    16. Format settings, CABAC         : Yes
    17. Format settings, Reference fra : 4 frames
    18. Codec ID                       : avc1
    19. Codec ID/Info                  : Advanced Video Coding
    20. Duration                       : 43 min 46 s
    21. Bit rate                       : 5 004 kb/s
    22. Width                          : 1 920 pixels
    23. Height                         : 1 072 pixels
    24. Display aspect ratio           : 16:9
    25. Frame rate mode                : Constant
    26. Frame rate                     : 25.000 FPS
    27. Color space                    : YUV
    28. Chroma subsampling             : 4:2:0
    29. Bit depth                      : 8 bits
    30. Scan type                      : Progressive
    31. Bits/(Pixel*Frame)             : 0.097
    32. Stream size                    : 1.53 GiB (97%)
    33. Writing library                : Provided by x264  :: H.264/MPEG-4 AVC codec -V 1.6.07
    34. Color range                    : Limited
    35. Color primaries                : BT.709
    36. Transfer characteristics       : BT.709
    37. Matrix coefficients            : BT.709
    38. Codec configuration box        : avcC

    39. Audio
    40. ID                             : 2
    41. Format                         : AAC LC
    42. Format/Info                    : Advanced Audio Codec Low Complexity
    43. Codec ID                       : mp4a-40-2
    44. Duration                       : 43 min 46 s
    45. Bit rate mode                  : Variable
    46. Bit rate                       : 128 kb/s
    47. Maximum bit rate               : 130 kb/s
    48. Channel(s)                     : 1 channel
    49. Channel layout                 : C
    50. Sampling rate                  : 44.1 kHz
    51. Frame rate                     : 43.066 FPS (1024 SPF)
    52. Compression mode               : Lossy
    53. Stream size                    : 40.1 MiB (2%)
    54. Default                        : Yes
    55. Alternate group                : 1
    复制代码





    购买主题 本主题需向作者支付 60 大洋 才能浏览
    郑重声明:
    本人提供的所有影视作品均是在网上搜集,任何涉及商业盈利目的均不得使用,否则产生的一切后果将由您自己承担!
    本人不对本人所发布的任何内容负任何法律责任!该下载内容仅做宽带测试使用,请在下载后24小时内删除。请购买正版!
    本人列出的文件没有保存在本站的服务器上,本人仅负责连接,本人对被传播文件的内容一无所知。
    如侵犯视频原作者或发行商版权,请联系本人删除!
    回复

    使用道具 举报

  • TA的每日心情
    开心
    昨天 10:33
  • 签到天数: 234 天

    [LV.7]常住居民III

    2

    主题

    2317

    帖子

    190

    积分

    高级影迷

    Rank: 4

    积分
    190
    发表于 2023-1-25 17:25:28 | 显示全部楼层
    感谢分享精彩资源
    回复

    使用道具 举报

  • TA的每日心情
    擦汗
    昨天 00:00
  • 签到天数: 797 天

    [LV.10]以坛为家III

    42

    主题

    7385

    帖子

    2916

    积分

    稀有影迷

    Rank: 12Rank: 12Rank: 12

    积分
    2916
    发表于 2023-1-25 23:26:19 | 显示全部楼层
    感谢楼主分享
    回复

    使用道具 举报

  • TA的每日心情
    无聊
    3 天前
  • 签到天数: 468 天

    [LV.9]以坛为家II

    0

    主题

    1032

    帖子

    231

    积分

    高级影迷

    Rank: 4

    积分
    231
    发表于 2023-1-26 01:22:06 | 显示全部楼层
    感谢楼主分享
    回复

    使用道具 举报

  • TA的每日心情
    开心
    昨天 18:12
  • 签到天数: 827 天

    [LV.10]以坛为家III

    0

    主题

    2060

    帖子

    213

    积分

    高级影迷

    Rank: 4

    积分
    213

    小土豪勋章

    发表于 2023-1-26 08:41:43 | 显示全部楼层
    乔任梁的剧没看过。
    回复

    使用道具 举报

  • TA的每日心情

    3 小时前
  • 签到天数: 470 天

    [LV.9]以坛为家II

    9

    主题

    4607

    帖子

    321

    积分

    超级影迷

    Rank: 6Rank: 6

    积分
    321
    发表于 2023-1-26 10:00:01 | 显示全部楼层
    谢谢分享好资源
    回复

    使用道具 举报

  • TA的每日心情
    奋斗
    昨天 08:42
  • 签到天数: 428 天

    [LV.9]以坛为家II

    0

    主题

    4189

    帖子

    226

    积分

    高级影迷

    Rank: 4

    积分
    226
    发表于 2023-1-26 10:49:49 | 显示全部楼层
    感谢楼主分享
    回复

    使用道具 举报

  • TA的每日心情

    昨天 20:23
  • 签到天数: 759 天

    [LV.10]以坛为家III

    7

    主题

    7254

    帖子

    749

    积分

    专业影迷

    Rank: 8Rank: 8

    积分
    749
    发表于 2023-1-26 11:06:48 | 显示全部楼层
    感谢分享好资源
    回复

    使用道具 举报

  • TA的每日心情
    开心
    昨天 19:40
  • 签到天数: 386 天

    [LV.9]以坛为家II

    3

    主题

    7634

    帖子

    532

    积分

    专业影迷

    Rank: 8Rank: 8

    积分
    532
    发表于 2023-1-28 18:37:23 | 显示全部楼层
    感谢楼主发布
    回复

    使用道具 举报

  • TA的每日心情
    无聊
    昨天 12:12
  • 签到天数: 140 天

    [LV.7]常住居民III

    0

    主题

    1159

    帖子

    172

    积分

    高级影迷

    Rank: 4

    积分
    172
    发表于 2023-1-31 10:22:25 | 显示全部楼层
    感谢分享!
    回复

    使用道具 举报

    您需要登录后才可以回帖 登录 | 立即注册

    本版积分规则

    QQ|Archiver|手机版|小黑屋|影迷乐园

    GMT+8, 2023-2-9 03:36 , Processed in 0.088343 second(s), 27 queries .

    Powered by Discuz! X3.4

    Copyright © 2001-2020, Tencent Cloud.

    快速回复 返回顶部 返回列表