请选择 进入手机版 | 继续访问电脑版

YMLY-影迷乐园-特效字幕 蓝光原盘 1080P 高清动漫电影电视剧

 找回密码
 立即注册
搜索
查看: 278|回复: 30

[美国] [百度+115][2022][2160P][梦魇绝镇][外挂中英特效字幕][10集全][MKV][43.87GB][From.S01.2160p.WEB-DL.DDP5.1.x265-TEPES]

[复制链接]
  • TA的每日心情
    奋斗
    22 小时前
  • 签到天数: 638 天

    [LV.9]以坛为家II

    37

    主题

    3222

    帖子

    289

    积分

    超级影迷

    Rank: 6Rank: 6

    积分
    289

    小土豪勋章十二生肖之蛇双鱼座勋章土豪勋章影迷男神

    发表于 2023-1-25 21:05:44 | 显示全部楼层 |阅读模式
    下载说明:

    百度云网盘分享极其不稳定,如有链接失效,请第一时间站内短消息通知我,上线后会第一时间补发!请大家多多谅解!电驴链接只能115会员离线下载,其它工具都下载不了!

    ----网络下载无名字幕组感谢字幕原发布人员,特此鸣谢!----




    ◎译  名 梦魇绝镇
    ◎片  名 From
    ◎年  代 2022
    ◎产  地 美国
    ◎类  别 科幻 / 恐怖
    ◎语  言 英语
    ◎上映日期 2022-02-20(美国)
    ◎IMDb评分  7.6/10 from 23k users
    ◎IMDb链接  https://www.imdb.com/title/tt9813792/
    ◎豆瓣评分 6.5/10 from 20,511 users
    ◎豆瓣链接 https://movie.douban.com/subject/35460437/
    ◎季  数 1
    ◎集  数 10
    ◎单集片长 50分钟
    ◎又      名   逃离恐怖镇
    ◎导      演   杰克·本德
    ◎编      剧   John Griffin
    ◎主      演   哈罗德·佩里诺 / 卡塔琳娜·桑地诺·莫雷诺 / 艾恩·贝利 / 汉娜·切尔敏 / Simon Webster

    ◎标  签 科幻 | 惊悚 | 人性 | 恐怖 | 悬疑 | 美国

    ◎简  介

       本剧讲述美国中部一个噩梦般的小镇会困住所有走进来的人,而不甘愿留下来的人在找寻出路的同时,他们还得面对日落后出没的怪物。

    -梦魇绝镇第二季将于2023年4月23日正式上映。


    影片参数

    1. General
    2. Unique ID                      : 26872007358295725660511066619572485574 (0x14375C40CBDC867F20F81305BC1D7DC6)
    3. Complete name                  : H:\From.S01.2160p.WEB-DL.DDP5.1.x265-TEPES\From.S01E01.Long.Days.Journey.Into.Night.2160p.WEB-DL.DDP5.1.H.265-TEPES.mkv
    4. Format                         : Matroska
    5. Format version                 : Version 4
    6. File size                      : 4.58 GiB
    7. Duration                       : 52 min 27 s
    8. Overall bit rate               : 12.5 Mb/s
    9. Writing application            : mkvmerge v65.0.0 ('Too Much') 64-bit
    10. Writing library                : libebml v1.4.2 + libmatroska v1.6.4

    11. Video
    12. ID                             : 1
    13. Format                         : HEVC
    14. Format/Info                    : High Efficiency Video Coding
    15. Format profile                 : Main [email protected]@High
    16. Codec ID                       : V_MPEGH/ISO/HEVC
    17. Duration                       : 52 min 27 s
    18. Bit rate                       : 11.8 Mb/s
    19. Width                          : 3 840 pixels
    20. Height                         : 1 916 pixels
    21. Display aspect ratio           : 2.004
    22. Frame rate mode                : Constant
    23. Frame rate                     : 23.976 FPS
    24. Color space                    : YUV
    25. Chroma subsampling             : 4:2:0
    26. Bit depth                      : 10 bits
    27. Bits/(Pixel*Frame)             : 0.067
    28. Stream size                    : 4.34 GiB (95%)
    29. Default                        : No
    30. Forced                         : No
    31. Color range                    : Limited
    32. Color primaries                : BT.709
    33. Transfer characteristics       : BT.709
    34. Matrix coefficients            : BT.709

    35. Audio
    36. ID                             : 2
    37. Format                         : E-AC-3
    38. Format/Info                    : Enhanced AC-3
    39. Commercial name                : Dolby Digital Plus
    40. Codec ID                       : A_EAC3
    41. Duration                       : 52 min 27 s
    42. Bit rate mode                  : Constant
    43. Bit rate                       : 640 kb/s
    44. Channel(s)                     : 6 channels
    45. Channel layout                 : L R C LFE Ls Rs
    46. Sampling rate                  : 48.0 kHz
    47. Frame rate                     : 31.250 FPS (1536 SPF)
    48. Compression mode               : Lossy
    49. Delay relative to video        : 14 ms
    50. Stream size                    : 240 MiB (5%)
    51. Language                       : English
    52. Service kind                   : Complete Main
    53. Default                        : Yes
    54. Forced                         : No

    55. Text #1
    56. ID                             : 3
    57. Format                         : UTF-8
    58. Codec ID                       : S_TEXT/UTF8
    59. Codec ID/Info                  : UTF-8 Plain Text
    60. Duration                       : 50 min 28 s
    61. Bit rate                       : 53 b/s
    62. Frame rate                     : 0.243 FPS
    63. Count of elements              : 736
    64. Stream size                    : 19.9 KiB (0%)
    65. Language                       : English
    66. Default                        : No
    67. Forced                         : No

    68. Text #2
    69. ID                             : 4
    70. Format                         : UTF-8
    71. Codec ID                       : S_TEXT/UTF8
    72. Codec ID/Info                  : UTF-8 Plain Text
    73. Duration                       : 51 min 26 s
    74. Bit rate                       : 63 b/s
    75. Frame rate                     : 0.283 FPS
    76. Count of elements              : 872
    77. Stream size                    : 23.9 KiB (0%)
    78. Title                          : SDH
    79. Language                       : English
    80. Default                        : No
    81. Forced                         : No
    复制代码



    影片截图












    购买主题 已有 3 人购买  本主题需向作者支付 60 大洋 才能浏览
    回复

    使用道具 举报

    该用户从未签到

    1

    主题

    901

    帖子

    109

    积分

    中级影迷

    Rank: 3Rank: 3

    积分
    109
    发表于 2023-1-25 23:04:18 | 显示全部楼层
    感谢楼主分享高清电视剧
    回复

    使用道具 举报

  • TA的每日心情

    半小时前
  • 签到天数: 795 天

    [LV.10]以坛为家III

    42

    主题

    7365

    帖子

    2912

    积分

    稀有影迷

    Rank: 12Rank: 12Rank: 12

    积分
    2912
    发表于 2023-1-25 23:23:34 | 显示全部楼层
    感谢楼主分享
    回复

    使用道具 举报

  • TA的每日心情
    擦汗
    昨天 08:55
  • 签到天数: 249 天

    [LV.8]以坛为家I

    8

    主题

    2479

    帖子

    225

    积分

    高级影迷

    Rank: 4

    积分
    225
    发表于 2023-1-25 23:28:39 | 显示全部楼层
    感谢分享~~!
    回复

    使用道具 举报

  • TA的每日心情
    无聊
    17 小时前
  • 签到天数: 381 天

    [LV.9]以坛为家II

    6

    主题

    1280

    帖子

    388

    积分

    超级影迷

    Rank: 6Rank: 6

    积分
    388
    发表于 2023-1-25 23:51:22 | 显示全部楼层
    感谢楼主分享
    回复

    使用道具 举报

  • TA的每日心情

    23 小时前
  • 签到天数: 787 天

    [LV.10]以坛为家III

    0

    主题

    2383

    帖子

    545

    积分

    专业影迷

    Rank: 8Rank: 8

    积分
    545
    发表于 2023-1-25 23:56:45 | 显示全部楼层
    感谢楼主分享
    回复

    使用道具 举报

  • TA的每日心情
    擦汗
    22 小时前
  • 签到天数: 917 天

    [LV.10]以坛为家III

    6

    主题

    7380

    帖子

    485

    积分

    专业影迷

    Rank: 8Rank: 8

    积分
    485
    发表于 2023-1-26 00:38:13 | 显示全部楼层

    感谢分享~~!
    回复

    使用道具 举报

  • TA的每日心情
    擦汗
    2022-9-21 23:25
  • 签到天数: 3 天

    [LV.2]偶尔看看I

    0

    主题

    1541

    帖子

    87

    积分

    中级影迷

    Rank: 3Rank: 3

    积分
    87

    开坛功臣

    发表于 2023-1-26 05:58:04 | 显示全部楼层
    感谢楼主分享高清电视剧
    回复

    使用道具 举报

  • TA的每日心情
    开心
    4 小时前
  • 签到天数: 608 天

    [LV.9]以坛为家II

    0

    主题

    6837

    帖子

    913

    积分

    资深影迷

    Rank: 10Rank: 10Rank: 10

    积分
    913
    发表于 2023-1-26 06:47:31 | 显示全部楼层
    感谢分享好资源
    回复

    使用道具 举报

  • TA的每日心情
    开心
    17 小时前
  • 签到天数: 309 天

    [LV.8]以坛为家I

    0

    主题

    2756

    帖子

    162

    积分

    高级影迷

    Rank: 4

    积分
    162
    发表于 2023-1-26 07:00:10 | 显示全部楼层
    感谢分享!!
    回复

    使用道具 举报

    您需要登录后才可以回帖 登录 | 立即注册

    本版积分规则

    QQ|Archiver|手机版|小黑屋|影迷乐园

    GMT+8, 2023-2-6 23:32 , Processed in 0.117061 second(s), 27 queries .

    Powered by Discuz! X3.4

    Copyright © 2001-2020, Tencent Cloud.

    快速回复 返回顶部 返回列表