请选择 进入手机版 | 继续访问电脑版

YMLY-影迷乐园-特效字幕 蓝光原盘 1080P 高清动漫电影电视剧

 找回密码
 立即注册
搜索
查看: 186|回复: 33

[美国] [115+百度][2022][1080P][伞学院S03.第三季][简繁.多国语言软字幕][10集全][MKV][16.71GB][Netflix.WEB-DL.HEVC.HDR.DDP-HDCTV]

[复制链接]
  • TA的每日心情
    奋斗
    2020-2-21 00:36
  • 签到天数: 656 天

    [LV.9]以坛为家II

    1万

    主题

    2万

    帖子

    13万

    积分

    超级版主

    与齐同行,是最初的梦想,也是一辈子的执着~

    Rank: 16Rank: 16Rank: 16Rank: 16

    积分
    132369

    内测勋章最佳新人十二生肖之猴VIP包月勋章影迷男神小土豪勋章土豪勋章富甲一方精华勋章金话筒主题达人灌水之王

    发表于 2023-3-12 15:57:40 | 显示全部楼层 |阅读模式
    下载说明:

    百度云7Z分卷打包上传,不会解压的不要购买!!115网盘不影响,直接是视频文件!


    ----转载自HDC,感谢压制和原发布人员,特此鸣谢!----

    原文件名:伞学院S03.The.Umbrella.Academy.S03.2022.Netflix.WEB-DL.1080p.HEVC.HDR.DDP-HDCTV



    ◎译  名 伞学院 第三季
    ◎片  名 The Umbrella Academy Season 3
    ◎年  代 2022
    ◎产  地 美国,加拿大
    ◎类  别 剧情 / 喜剧 / 动作 / 科幻 / 奇幻 / 冒险
    ◎语  言 英语
    ◎上映日期 2022-06-22(美国)
    ◎IMDb评分  7.7/10 from 3573 users
    ◎IMDb链接  https://www.imdb.com/title/tt13435914/
    ◎豆瓣评分 7.1/10 from 5075 users
    ◎豆瓣链接 https://movie.douban.com/subject/35239212/
    ◎集  数 10
    ◎片  长 50分钟
    ◎导  演 杰里米·韦布 Jeremy Webb
    ◎编  剧 史蒂夫·布莱克曼 Steve Blackman / 杰拉德·威 Gerard Way /  Aeryn Michelle Williams / 罗伯特·阿斯金 Robert Askins
    ◎主  演 艾利奥特·佩吉 Elliot Page
           汤姆·霍珀 Tom Hopper
           艾丹·加拉赫 Aidan Gallagher
           艾美·拉韦尔-兰普曼 Emmy Raver-Lampman
           罗伯特·席安 Robert Sheehan
           大卫·卡斯塔尼达 David Castañeda
           贾斯汀·闵 Justin H. Min
           里图·阿亚 Ritu Arya
           科鲁姆·费奥瑞 Colm Feore
           珍尼希斯·罗德里格兹 Genesis Rodriguez
           杰文·旺纳·沃尔顿 Javon 'Wanna' Walton
           杰克·爱泼斯坦 Jake Epstein
           布丽特妮·欧德福特 Britne Oldford
           贾斯汀·康维尔 Justin Cornwell
           格雷厄姆·帕克赫斯特 Graham Parkhurst
           马克·查尔斯·考林 Mark Charles Cowling
           詹姆斯·杰拉尔德·希克斯 James Gerald Hicks
           奥利弗·科顿 Oliver Kirton
           帕特里斯·古德曼 Patrice Goodman
           卡兹·戴维 Cazzie David

    ◎简  介

      在阻止了 1963 年的世界末日之后,伞学院回到了现在,确信他们阻止了最初的世界末日,并彻底修复了这条遗忘的时间线。然而在短暂的庆祝之后,他们意识到自己(彻底)失算了。聪明、时尚而冰冷的麻雀学院和伞学院在一场激烈的对峙中发生冲突,然而这远非伞学院最大的麻烦。伞学院将直面挑战、损失和惊喜,并着手处理一个在宇宙中大搞破坏的不明实体(而这可能是他们自己一手造成的)。现在他们需要做的就是说服爸爸的新(也可能更优秀的)家庭,来帮助纠正因他们的到来所导致的错误。他们能否找到回到世界末日前的方法?或者这个新世界不只是时间线上的一个小错误,大难即将临头?

    1. General
    2. Unique ID                      : 27555107301100961652143153790096072392 (0x14BAEBAE39611941705BA5AA8C3D5EC8)
    3. The.Umbrella.Academy.S03E02.2022.Netflix.WEB-DL.1080p.HEVC.HDR.DDP-HDCTV.mkv
    4. Format                         : Matroska
    5. Format version                 : Version 4
    6. File size                      : 1.82 GiB
    7. Duration                       : 52 min 38 s
    8. Overall bit rate               : 4 952 kb/s
    9. Encoded date                   : UTC 2022-06-22 08:28:05
    10. Writing application            : mkvmerge v57.0.0 ('Till The End') 64-bit
    11. Writing library                : libebml v1.4.2 + libmatroska v1.6.4

    12. Video
    13. ID                             : 1
    14. Format                         : HEVC
    15. Format/Info                    : High Efficiency Video Coding
    16. Format profile                 : Main [email protected]@Main
    17. HDR format                     : SMPTE ST 2086, HDR10 compatible
    18. Codec ID                       : V_MPEGH/ISO/HEVC
    19. Duration                       : 50 min 50 s
    20. Bit rate                       : 4 457 kb/s
    21. Width                          : 1 920 pixels
    22. Height                         : 1 080 pixels
    23. Display aspect ratio           : 16:9
    24. Frame rate mode                : Constant
    25. Frame rate                     : 23.976 (24000/1001) FPS
    26. Color space                    : YUV
    27. Chroma subsampling             : 4:2:0 (Type 2)
    28. Bit depth                      : 10 bits
    29. Bits/(Pixel*Frame)             : 0.090
    30. Stream size                    : 1.58 GiB (87%)
    31. Default                        : Yes
    32. Forced                         : No
    33. Color range                    : Limited
    34. Color primaries                : BT.2020
    35. Transfer characteristics       : PQ
    36. Matrix coefficients            : BT.2020 non-constant
    37. Mastering display color primar : Display P3
    38. Mastering display luminance    : min: 0.0001 cd/m2, max: 1000 cd/m2
    39. Maximum Content Light Level    : 1209 cd/m2
    40. Maximum Frame-Average Light Le : 717 cd/m2

    41. Audio
    42. ID                             : 2
    43. Format                         : E-AC-3
    44. Format/Info                    : Enhanced AC-3
    45. Commercial name                : Dolby Digital Plus
    46. Codec ID                       : A_EAC3
    47. Duration                       : 52 min 38 s
    48. Bit rate mode                  : Constant
    49. Bit rate                       : 640 kb/s
    50. Channel(s)                     : 6 channels
    51. Channel layout                 : L R C LFE Ls Rs
    52. Sampling rate                  : 48.0 kHz
    53. Frame rate                     : 31.250 FPS (1536 SPF)
    54. Compression mode               : Lossy
    55. Stream size                    : 241 MiB (13%)
    56. Title                          : English
    57. Language                       : English
    58. Service kind                   : Complete Main
    59. Default                        : Yes
    60. Forced                         : No

    61. Text #1
    62. ID                             : 3
    63. Format                         : UTF-8
    64. Codec ID                       : S_TEXT/UTF8
    65. Codec ID/Info                  : UTF-8 Plain Text
    66. Duration                       : 47 min 56 s
    67. Bit rate                       : 100 b/s
    68. Count of elements              : 881
    69. Stream size                    : 35.4 KiB (0%)
    70. Title                          : English
    71. Language                       : English
    72. Default                        : Yes
    73. Forced                         : No

    74. Text #2
    75. ID                             : 4
    76. Format                         : UTF-8
    77. Codec ID                       : S_TEXT/UTF8
    78. Codec ID/Info                  : UTF-8 Plain Text
    79. Duration                       : 50 min 32 s
    80. Bit rate                       : 95 b/s
    81. Count of elements              : 673
    82. Stream size                    : 35.5 KiB (0%)
    83. Title                          : عربى
    84. Language                       : Arabic
    85. Default                        : No
    86. Forced                         : No

    87. Text #3
    88. ID                             : 5
    89. Format                         : UTF-8
    90. Codec ID                       : S_TEXT/UTF8
    91. Codec ID/Info                  : UTF-8 Plain Text
    92. Duration                       : 50 min 32 s
    93. Bit rate                       : 63 b/s
    94. Count of elements              : 669
    95. Stream size                    : 23.5 KiB (0%)
    96. Title                          : 中文(简体)
    97. Language                       : Chinese
    98. Default                        : No
    99. Forced                         : No

    100. Text #4
    101. ID                             : 6
    102. Format                         : UTF-8
    103. Codec ID                       : S_TEXT/UTF8
    104. Codec ID/Info                  : UTF-8 Plain Text
    105. Duration                       : 50 min 32 s
    106. Bit rate                       : 57 b/s
    107. Count of elements              : 659
    108. Stream size                    : 21.4 KiB (0%)
    109. Title                          : 中文(繁體)
    110. Language                       : Chinese
    111. Default                        : No
    112. Forced                         : No

    113. Text #5
    114. ID                             : 7
    115. Format                         : UTF-8
    116. Codec ID                       : S_TEXT/UTF8
    117. Codec ID/Info                  : UTF-8 Plain Text
    118. Duration                       : 50 min 32 s
    119. Bit rate                       : 47 b/s
    120. Count of elements              : 656
    121. Stream size                    : 17.4 KiB (0%)
    122. Title                          : hrvatski
    123. Language                       : Croatian
    124. Default                        : No
    125. Forced                         : No

    126. Text #6
    127. ID                             : 8
    128. Format                         : UTF-8
    129. Codec ID                       : S_TEXT/UTF8
    130. Codec ID/Info                  : UTF-8 Plain Text
    131. Duration                       : 50 min 32 s
    132. Bit rate                       : 50 b/s
    133. Count of elements              : 661
    134. Stream size                    : 18.6 KiB (0%)
    135. Title                          : Česky
    136. Language                       : Czech
    137. Default                        : No
    138. Forced                         : No

    139. Text #7
    140. ID                             : 9
    141. Format                         : UTF-8
    142. Codec ID                       : S_TEXT/UTF8
    143. Codec ID/Info                  : UTF-8 Plain Text
    144. Duration                       : 50 min 32 s
    145. Bit rate                       : 49 b/s
    146. Count of elements              : 611
    147. Stream size                    : 18.3 KiB (0%)
    148. Title                          : dansk
    149. Language                       : Danish
    150. Default                        : No
    151. Forced                         : No

    152. Text #8
    153. ID                             : 10
    154. Format                         : UTF-8
    155. Codec ID                       : S_TEXT/UTF8
    156. Codec ID/Info                  : UTF-8 Plain Text
    157. Duration                       : 50 min 32 s
    158. Bit rate                       : 46 b/s
    159. Count of elements              : 569
    160. Stream size                    : 17.2 KiB (0%)
    161. Title                          : Nederlands
    162. Language                       : Dutch
    163. Default                        : No
    164. Forced                         : No

    165. Text #9
    166. ID                             : 11
    167. Format                         : UTF-8
    168. Codec ID                       : S_TEXT/UTF8
    169. Codec ID/Info                  : UTF-8 Plain Text
    170. Duration                       : 50 min 32 s
    171. Bit rate                       : 45 b/s
    172. Count of elements              : 476
    173. Stream size                    : 17.0 KiB (0%)
    174. Title                          : Vlaams
    175. Language                       : Finnish
    176. Default                        : No
    177. Forced                         : No

    178. Text #10
    179. ID                             : 12
    180. Format                         : UTF-8
    181. Codec ID                       : S_TEXT/UTF8
    182. Codec ID/Info                  : UTF-8 Plain Text
    183. Duration                       : 50 min 32 s
    184. Bit rate                       : 50 b/s
    185. Count of elements              : 616
    186. Stream size                    : 18.8 KiB (0%)
    187. Title                          : Français
    188. Language                       : French
    189. Default                        : No
    190. Forced                         : No

    191. Text #11
    192. ID                             : 13
    193. Format                         : UTF-8
    194. Codec ID                       : S_TEXT/UTF8
    195. Codec ID/Info                  : UTF-8 Plain Text
    196. Duration                       : 50 min 32 s
    197. Bit rate                       : 51 b/s
    198. Count of elements              : 637
    199. Stream size                    : 19.2 KiB (0%)
    200. Title                          : Deutsch
    201. Language                       : German
    202. Default                        : No
    203. Forced                         : No

    204. Text #12
    205. ID                             : 14
    206. Format                         : UTF-8
    207. Codec ID                       : S_TEXT/UTF8
    208. Codec ID/Info                  : UTF-8 Plain Text
    209. Duration                       : 50 min 32 s
    210. Bit rate                       : 86 b/s
    211. Count of elements              : 700
    212. Stream size                    : 32.1 KiB (0%)
    213. Title                          : ελληνικά
    214. Language                       : Greek
    215. Default                        : No
    216. Forced                         : No

    217. Text #13
    218. ID                             : 15
    219. Format                         : UTF-8
    220. Codec ID                       : S_TEXT/UTF8
    221. Codec ID/Info                  : UTF-8 Plain Text
    222. Duration                       : 50 min 32 s
    223. Bit rate                       : 88 b/s
    224. Count of elements              : 667
    225. Stream size                    : 32.9 KiB (0%)
    226. Title                          : עברי
    227. Language                       : Hebrew
    228. Default                        : No
    229. Forced                         : No

    230. Text #14
    231. ID                             : 16
    232. Format                         : UTF-8
    233. Codec ID                       : S_TEXT/UTF8
    234. Codec ID/Info                  : UTF-8 Plain Text
    235. Duration                       : 50 min 32 s
    236. Bit rate                       : 47 b/s
    237. Count of elements              : 625
    238. Stream size                    : 17.7 KiB (0%)
    239. Title                          : Magyar
    240. Language                       : Hungarian
    241. Default                        : No
    242. Forced                         : No

    243. Text #15
    244. ID                             : 17
    245. Format                         : UTF-8
    246. Codec ID                       : S_TEXT/UTF8
    247. Codec ID/Info                  : UTF-8 Plain Text
    248. Duration                       : 50 min 32 s
    249. Bit rate                       : 53 b/s
    250. Count of elements              : 662
    251. Stream size                    : 19.9 KiB (0%)
    252. Title                          : Indonesia
    253. Language                       : Indonesian
    254. Default                        : No
    255. Forced                         : No

    256. Text #16
    257. ID                             : 18
    258. Format                         : UTF-8
    259. Codec ID                       : S_TEXT/UTF8
    260. Codec ID/Info                  : UTF-8 Plain Text
    261. Duration                       : 50 min 32 s
    262. Bit rate                       : 54 b/s
    263. Count of elements              : 638
    264. Stream size                    : 20.0 KiB (0%)
    265. Title                          : Italiano
    266. Language                       : Italian
    267. Default                        : No
    268. Forced                         : No

    269. Text #17
    270. ID                             : 19
    271. Format                         : UTF-8
    272. Codec ID                       : S_TEXT/UTF8
    273. Codec ID/Info                  : UTF-8 Plain Text
    274. Duration                       : 50 min 32 s
    275. Bit rate                       : 60 b/s
    276. Count of elements              : 730
    277. Stream size                    : 22.3 KiB (0%)
    278. Title                          : 日本語
    279. Language                       : Japanese
    280. Default                        : No
    281. Forced                         : No

    282. Text #18
    283. ID                             : 20
    284. Format                         : UTF-8
    285. Codec ID                       : S_TEXT/UTF8
    286. Codec ID/Info                  : UTF-8 Plain Text
    287. Duration                       : 50 min 32 s
    288. Bit rate                       : 65 b/s
    289. Count of elements              : 686
    290. Stream size                    : 24.3 KiB (0%)
    291. Title                          : 한국어
    292. Language                       : Korean
    293. Default                        : No
    294. Forced                         : No

    295. Text #19
    296. ID                             : 21
    297. Format                         : UTF-8
    298. Codec ID                       : S_TEXT/UTF8
    299. Codec ID/Info                  : UTF-8 Plain Text
    300. Duration                       : 50 min 32 s
    301. Bit rate                       : 50 b/s
    302. Count of elements              : 647
    303. Stream size                    : 18.8 KiB (0%)
    304. Title                          : بهاس ملايو
    305. Language                       : Malay
    306. Default                        : No
    307. Forced                         : No

    308. Text #20
    309. ID                             : 22
    310. Format                         : UTF-8
    311. Codec ID                       : S_TEXT/UTF8
    312. Codec ID/Info                  : UTF-8 Plain Text
    313. Duration                       : 50 min 32 s
    314. Bit rate                       : 52 b/s
    315. Count of elements              : 563
    316. Stream size                    : 19.4 KiB (0%)
    317. Title                          : norsk
    318. Language                       : Norwegian Bokmal
    319. Default                        : No
    320. Forced                         : No

    321. Text #21
    322. ID                             : 23
    323. Format                         : UTF-8
    324. Codec ID                       : S_TEXT/UTF8
    325. Codec ID/Info                  : UTF-8 Plain Text
    326. Duration                       : 50 min 32 s
    327. Bit rate                       : 49 b/s
    328. Count of elements              : 636
    329. Stream size                    : 18.5 KiB (0%)
    330. Title                          : Język polski
    331. Language                       : Polish
    332. Default                        : No
    333. Forced                         : No

    334. Text #22
    335. ID                             : 24
    336. Format                         : UTF-8
    337. Codec ID                       : S_TEXT/UTF8
    338. Codec ID/Info                  : UTF-8 Plain Text
    339. Duration                       : 50 min 32 s
    340. Bit rate                       : 55 b/s
    341. Count of elements              : 651
    342. Stream size                    : 20.5 KiB (0%)
    343. Title                          : Português
    344. Language                       : Portuguese
    345. Default                        : No
    346. Forced                         : No

    347. Text #23
    348. ID                             : 25
    349. Format                         : UTF-8
    350. Codec ID                       : S_TEXT/UTF8
    351. Codec ID/Info                  : UTF-8 Plain Text
    352. Duration                       : 50 min 32 s
    353. Bit rate                       : 52 b/s
    354. Count of elements              : 653
    355. Stream size                    : 19.6 KiB (0%)
    356. Title                          : Português
    357. Language                       : Portuguese
    358. Default                        : No
    359. Forced                         : No

    360. Text #24
    361. ID                             : 26
    362. Format                         : UTF-8
    363. Codec ID                       : S_TEXT/UTF8
    364. Codec ID/Info                  : UTF-8 Plain Text
    365. Duration                       : 50 min 32 s
    366. Bit rate                       : 58 b/s
    367. Count of elements              : 651
    368. Stream size                    : 21.7 KiB (0%)
    369. Title                          : Limba romană
    370. Language                       : Romanian
    371. Default                        : No
    372. Forced                         : No

    373. Text #25
    374. ID                             : 27
    375. Format                         : UTF-8
    376. Codec ID                       : S_TEXT/UTF8
    377. Codec ID/Info                  : UTF-8 Plain Text
    378. Duration                       : 50 min 32 s
    379. Bit rate                       : 89 b/s
    380. Count of elements              : 670
    381. Stream size                    : 33.0 KiB (0%)
    382. Title                          : русский язык
    383. Language                       : Russian
    384. Default                        : No
    385. Forced                         : No

    386. Text #26
    387. ID                             : 28
    388. Format                         : UTF-8
    389. Codec ID                       : S_TEXT/UTF8
    390. Codec ID/Info                  : UTF-8 Plain Text
    391. Duration                       : 50 min 32 s
    392. Bit rate                       : 51 b/s
    393. Count of elements              : 639
    394. Stream size                    : 19.2 KiB (0%)
    395. Title                          : Español (Latinoamérica)
    396. Language                       : Spanish
    397. Default                        : No
    398. Forced                         : No

    399. Text #27
    400. ID                             : 29
    401. Format                         : UTF-8
    402. Codec ID                       : S_TEXT/UTF8
    403. Codec ID/Info                  : UTF-8 Plain Text
    404. Duration                       : 50 min 32 s
    405. Bit rate                       : 51 b/s
    406. Count of elements              : 639
    407. Stream size                    : 19.2 KiB (0%)
    408. Title                          : Español (España)
    409. Language                       : Spanish
    410. Default                        : No
    411. Forced                         : No

    412. Text #28
    413. ID                             : 30
    414. Format                         : UTF-8
    415. Codec ID                       : S_TEXT/UTF8
    416. Codec ID/Info                  : UTF-8 Plain Text
    417. Duration                       : 50 min 32 s
    418. Bit rate                       : 49 b/s
    419. Count of elements              : 559
    420. Stream size                    : 18.4 KiB (0%)
    421. Title                          : svenska
    422. Language                       : Swedish
    423. Default                        : No
    424. Forced                         : No

    425. Text #29
    426. ID                             : 31
    427. Format                         : UTF-8
    428. Codec ID                       : S_TEXT/UTF8
    429. Codec ID/Info                  : UTF-8 Plain Text
    430. Duration                       : 50 min 32 s
    431. Bit rate                       : 136 b/s
    432. Count of elements              : 671
    433. Stream size                    : 50.6 KiB (0%)
    434. Title                          : ไทย
    435. Language                       : Thai
    436. Default                        : No
    437. Forced                         : No

    438. Text #30
    439. ID                             : 32
    440. Format                         : UTF-8
    441. Codec ID                       : S_TEXT/UTF8
    442. Codec ID/Info                  : UTF-8 Plain Text
    443. Duration                       : 50 min 32 s
    444. Bit rate                       : 53 b/s
    445. Count of elements              : 656
    446. Stream size                    : 19.8 KiB (0%)
    447. Title                          : Türk
    448. Language                       : Turkish
    449. Default                        : No
    450. Forced                         : No

    451. Text #31
    452. ID                             : 33
    453. Format                         : UTF-8
    454. Codec ID                       : S_TEXT/UTF8
    455. Codec ID/Info                  : UTF-8 Plain Text
    456. Duration                       : 50 min 32 s
    457. Bit rate                       : 79 b/s
    458. Count of elements              : 658
    459. Stream size                    : 29.3 KiB (0%)
    460. Title                          : Українська
    461. Language                       : Ukrainian
    462. Default                        : No
    463. Forced                         : No

    464. Text #32
    465. ID                             : 34
    466. Format                         : UTF-8
    467. Codec ID                       : S_TEXT/UTF8
    468. Codec ID/Info                  : UTF-8 Plain Text
    469. Duration                       : 50 min 32 s
    470. Bit rate                       : 74 b/s
    471. Count of elements              : 666
    472. Stream size                    : 27.8 KiB (0%)
    473. Title                          : Tiếng Việt
    474. Language                       : Vietnamese
    475. Default                        : No
    476. Forced                         : No
    复制代码





    购买主题 已有 1 人购买  本主题需向作者支付 30 大洋 才能浏览
    郑重声明:
    本人提供的所有影视作品均是在网上搜集,任何涉及商业盈利目的均不得使用,否则产生的一切后果将由您自己承担!
    本人不对本人所发布的任何内容负任何法律责任!该下载内容仅做宽带测试使用,请在下载后24小时内删除。请购买正版!
    本人列出的文件没有保存在本站的服务器上,本人仅负责连接,本人对被传播文件的内容一无所知。
    如侵犯视频原作者或发行商版权,请联系本人删除!
    回复

    使用道具 举报

  • TA的每日心情
    开心
    11 小时前
  • 签到天数: 856 天

    [LV.10]以坛为家III

    31

    主题

    8794

    帖子

    1513

    积分

    稀有影迷

    Rank: 12Rank: 12Rank: 12

    积分
    1513
    发表于 2023-3-12 16:31:55 | 显示全部楼层
    感谢分享,支持一下。
    回复

    使用道具 举报

  • TA的每日心情
    开心
    4 小时前
  • 签到天数: 427 天

    [LV.9]以坛为家II

    3

    主题

    8224

    帖子

    508

    积分

    专业影迷

    Rank: 8Rank: 8

    积分
    508
    发表于 2023-3-12 18:32:22 | 显示全部楼层
    感谢楼主分享
    回复

    使用道具 举报

  • TA的每日心情
    开心
    昨天 08:45
  • 签到天数: 309 天

    [LV.8]以坛为家I

    0

    主题

    1268

    帖子

    373

    积分

    超级影迷

    Rank: 6Rank: 6

    积分
    373

    小土豪勋章

    发表于 2023-3-12 19:21:02 | 显示全部楼层
    谢谢楼主分享!
    回复

    使用道具 举报

  • TA的每日心情
    开心
    2022-11-5 23:24
  • 签到天数: 65 天

    [LV.6]常住居民II

    0

    主题

    3309

    帖子

    215

    积分

    高级影迷

    Rank: 4

    积分
    215
    发表于 2023-3-12 22:49:53 | 显示全部楼层

    感谢分享,支持一下。
    回复

    使用道具 举报

  • TA的每日心情
    擦汗
    昨天 00:00
  • 签到天数: 843 天

    [LV.10]以坛为家III

    42

    主题

    7788

    帖子

    3019

    积分

    传奇影迷

    Rank: 14Rank: 14Rank: 14Rank: 14

    积分
    3019
    发表于 2023-3-12 23:39:16 | 显示全部楼层
    谢谢楼主分享!
    回复

    使用道具 举报

  • TA的每日心情

    1 小时前
  • 签到天数: 640 天

    [LV.9]以坛为家II

    6

    主题

    5803

    帖子

    913

    积分

    资深影迷

    Rank: 10Rank: 10Rank: 10

    积分
    913
    发表于 2023-3-12 23:44:24 | 显示全部楼层
    回复

    使用道具 举报

  • TA的每日心情
    开心
    昨天 12:57
  • 签到天数: 204 天

    [LV.7]常住居民III

    22

    主题

    1802

    帖子

    303

    积分

    超级影迷

    Rank: 6Rank: 6

    积分
    303
    发表于 2023-3-13 00:19:47 | 显示全部楼层
    感谢分享啊
    回复

    使用道具 举报

  • TA的每日心情
    开心
    20 小时前
  • 签到天数: 664 天

    [LV.9]以坛为家II

    3

    主题

    5447

    帖子

    950

    积分

    资深影迷

    Rank: 10Rank: 10Rank: 10

    积分
    950

    小土豪勋章土豪勋章

    发表于 2023-3-13 00:27:31 | 显示全部楼层
    谢谢分享         
    回复

    使用道具 举报

  • TA的每日心情
    开心
    7 小时前
  • 签到天数: 342 天

    [LV.8]以坛为家I

    0

    主题

    2841

    帖子

    639

    积分

    专业影迷

    Rank: 8Rank: 8

    积分
    639
    发表于 2023-3-13 00:59:53 | 显示全部楼层
    感谢楼主分享资源
    回复

    使用道具 举报

    您需要登录后才可以回帖 登录 | 立即注册

    本版积分规则

    QQ|Archiver|手机版|小黑屋|影迷乐园

    GMT+8, 2023-3-27 21:32 , Processed in 0.107798 second(s), 27 queries .

    Powered by Discuz! X3.4

    Copyright © 2001-2020, Tencent Cloud.

    快速回复 返回顶部 返回列表