请选择 进入手机版 | 继续访问电脑版

YMLY-影迷乐园-特效字幕 蓝光原盘 1080P 高清动漫电影电视剧

 找回密码
 立即注册
搜索
查看: 121|回复: 18

[大陆] [百度][2013][1080P][大秦帝国之纵横.台版未删减][国语繁中][宁静.富大龙][51集全][MKV][79.41GB][The.Qin.Empire.Pack.II.WEB-DL.1080p.H264.AAC2.0-luck若水]

[复制链接]
  • TA的每日心情
    奋斗
    5 天前
  • 签到天数: 656 天

    [LV.9]以坛为家II

    4983

    主题

    6102

    帖子

    1万

    积分

    超级版主

    Rank: 16Rank: 16Rank: 16Rank: 16

    积分
    12939

    内测勋章最佳新人十二生肖之猴VIP包月勋章影迷男神小土豪勋章土豪勋章富甲一方精华勋章金话筒主题达人灌水之王

    发表于 2020-2-14 14:00:32 | 显示全部楼层 |阅读模式
    下载说明:

    百度网盘分享极其不稳定,如有链接失效,请第一时间站内短消息通知我,上线后会第一时间补发!请大家多多谅解!电驴链接只能115会员离线下载,其它工具都下载不了!


    ----资源出自百度贴吧,感谢作者:luck若水! 视频由luck若水,下载自Youtube,并添加音频。----



    ◎译  名 Qin Empire 2 / 大秦帝国2 / 大秦帝国2:纵横
    ◎片  名 大秦帝国之纵横
    ◎年  代 2013
    ◎产  地 中国大陆
    ◎类  别 剧情 / 历史 / 古装
    ◎语  言 汉语普通话
    ◎上映日期 2013-09-05(中国大陆)
    ◎豆瓣评分 9.1/10 from 22921 users
    ◎豆瓣链接 https://movie.douban.com/subject/4858790/
    ◎集  数 51
    ◎片  长 45分钟
    ◎导  演 丁黑 Ding Hei
    ◎编  剧 张建伟 Jianwei Zhang
    ◎主  演 宁静 Jing Ning
          富大龙 Dalong Fu
          傅淼 Miao Fu
          喻恩泰 Entai Yu
          杨新鸣 Xinming Yang
          李立群 Lichun Lee
          姚橹 Lu Yao
          杨志刚 Zhigang Yang
          赫子铭 Lanpeng He
          周波 Bo Zhou
          田小冰
          刘钊宏
          袁菲 Fei Yuan
          荆浩 Hao Jing
          张振华 Zhenhua Zhang
          孙霆
          蒋一铭 Yiming Jiang
          周征波 Zhengbo Zhou
          赵毅
          孙强
          高海成
          杨紫嫣 Ziyan Yang
          罗天佑
          战鹤文 Hewen Zhan
          丁嘉兰
          任正彬 Zheng-bin Ren
          王彩平 Caiping Wang
          张太龙
          彭志东
          孙飞虎 Feihu Sun
          贺云庆
          闫以昌
          刘辉
          张博 Bo Zhang
          王俊鹏
          王嘉浩
          雪菲
          闫沛
          王运生
          朱梓郡
          彭波 Bo Peng
          郑天庸 Tianyong Zheng
          张璇 Xuan Zhang
          魏华
          焦刚 Gang Jiao
          夏侯镔 Bin Xiahou
          成国栋 Guodong Cheng
          王大奇 Daqi Wang
          赵波
          马卫军 Weijun Ma
          刘畅
          廖东力
          王宁
          何勇生
          田小冰 Xiaobing Tian
          刘磊
          刘天佐 Tianzuo Liu
          黎明明 Mingming Li
          郭家铭 Jiaming Guo
          王笛 Di Wang
          陈昊 Hao Chen
          陈晓 Xiao Chen
          李保成 Baocheng Li
          朱军


    ◎标  签 大秦帝国 | 历史 | 历史剧 | 国产电视剧 | 大争之世 | 电视剧 | 战国 | 中国

    ◎简  介  

      东周列国,百年征伐,兼并挞伐,此消彼长。时至战国中期,七国并霸。曾经险遭灭国的秦国在商鞅变法之下迅速崛起,成为西北旷原最不可忽视的力量。在保守势力的逼迫下,年轻的秦惠文王嬴驷(富大龙 饰)被迫车裂商鞅,却也以消极的态度抑制保守一派。齐魏相王,雄心勃勃的秦惠文王在极其凶险的局势下登上国际舞台,同时铲除国内以甘龙为首的反对势力,为雄霸天下铺平了道路。国力衰退的魏惠王(李立群 饰)为遏制强邻的东进态势,任用苏秦的六国合纵之说以陷秦国于孤立。而秦国在不断蚕食周边之际,也启用张仪(喻恩泰 饰)提出连横的对策。豪杰贤士竞相登场,战国历史进入了最颠荡起伏的时代……
    本片根据孙皓晖的同名历史小说的第二部改编。

    ◎获奖情况  

      第30届中国电视剧飞天奖(2015)
      飞天奖 历史题材优秀电视剧大奖

      第27届中国电视金鹰奖(2014)
      优秀电视剧(提名)
      最佳摄影奖
    1. General
    2. Format                         : Matroska
    3. Format version                 : Version 4
    4. File size                      : 1.10 GiB
    5. Duration                       : 46 min 52 s
    6. Overall bit rate               : 3 369 kb/s
    7. Encoded date                   : UTC 2015-12-18 10:22:28
    8. Writing application            : mkvmerge v8.6.1 ('Flying') 64bit
    9. Writing library                : libebml v1.3.3 + libmatroska v1.4.4

    10. Video
    11. ID                             : 1
    12. Format                         : AVC
    13. Format/Info                    : Advanced Video Codec
    14. Format profile                 : High@L4
    15. Format settings                : CABAC / 2 Ref Frames
    16. Format settings, CABAC         : Yes
    17. Format settings, Reference fra : 2 frames
    18. Codec ID                       : V_MPEG4/ISO/AVC
    19. Duration                       : 46 min 52 s
    20. Bit rate                       : 3 241 kb/s
    21. Width                          : 1 920 pixels
    22. Height                         : 1 080 pixels
    23. Display aspect ratio           : 16:9
    24. Frame rate mode                : Constant
    25. Frame rate                     : 29.970 (30000/1001) FPS
    26. Color space                    : YUV
    27. Chroma subsampling             : 4:2:0
    28. Bit depth                      : 8 bits
    29. Scan type                      : Progressive
    30. Bits/(Pixel*Frame)             : 0.052
    31. Stream size                    : 1.06 GiB (96%)
    32. Default                        : Yes
    33. Forced                         : No

    34. Audio
    35. ID                             : 2
    36. Format                         : AAC LC
    37. Format/Info                    : Advanced Audio Codec Low Complexity
    38. Codec ID                       : A_AAC-2
    39. Duration                       : 46 min 52 s
    40. Bit rate                       : 126 kb/s
    41. Channel(s)                     : 2 channels
    42. Channel layout                 : L R
    43. Sampling rate                  : 44.1 kHz
    44. Frame rate                     : 43.066 FPS (1024 SPF)
    45. Compression mode               : Lossy
    46. Stream size                    : 42.1 MiB (4%)
    47. Default                        : Yes
    48. Forced                         : No
    复制代码







    购买主题 已有 6 人购买  本主题需向作者支付 40 大洋 才能浏览
    郑重声明:
    本人提供的所有影视作品均是在网上搜集,任何涉及商业盈利目的均不得使用,否则产生的一切后果将由您自己承担!
    本人不对本人所发布的任何内容负任何法律责任!该下载内容仅做宽带测试使用,请在下载后24小时内删除。请购买正版!
    本人列出的文件没有保存在本站的服务器上,本人仅负责连接,本人对被传播文件的内容一无所知。
    如侵犯视频原作者或发行商版权,请联系本人删除!
    回复

    使用道具 举报

  • TA的每日心情
    开心
    7 天前
  • 签到天数: 3 天

    [LV.2]偶尔看看I

    12

    主题

    48

    帖子

    78

    积分

    中级影迷

    Rank: 3Rank: 3

    积分
    78
    发表于 2020-2-14 15:53:19 | 显示全部楼层
    真是好东西啊,谢谢楼主了
    回复

    使用道具 举报

  • TA的每日心情
    开心
    昨天 12:17
  • 签到天数: 46 天

    [LV.5]常住居民I

    0

    主题

    184

    帖子

    21

    积分

    入门影迷

    Rank: 1

    积分
    21
    发表于 2020-2-15 23:47:04 | 显示全部楼层
    可以的,绝对是好剧
    回复

    使用道具 举报

  • TA的每日心情
    开心
    昨天 12:17
  • 签到天数: 46 天

    [LV.5]常住居民I

    0

    主题

    184

    帖子

    21

    积分

    入门影迷

    Rank: 1

    积分
    21
    发表于 2020-2-15 23:47:37 | 显示全部楼层
    失效了哟,楼主麻烦补补链接

    点评

    链接已更新  发表于 2020-2-16 22:10
    回复

    使用道具 举报

  • TA的每日心情
    开心
    昨天 14:13
  • 签到天数: 11 天

    [LV.3]偶尔看看II

    2

    主题

    147

    帖子

    203

    积分

    高级影迷

    Rank: 4

    积分
    203
    发表于 2020-2-16 02:37:45 | 显示全部楼层
    下过了,纯支持
    回复

    使用道具 举报

  • TA的每日心情
    擦汗
    昨天 09:58
  • 签到天数: 29 天

    [LV.4]偶尔看看III

    0

    主题

    43

    帖子

    26

    积分

    初级影迷

    Rank: 2

    积分
    26
    发表于 2020-2-16 08:57:31 | 显示全部楼层
    谢谢分享 。
    回复

    使用道具 举报

  • TA的每日心情
    擦汗
    昨天 09:58
  • 签到天数: 29 天

    [LV.4]偶尔看看III

    0

    主题

    43

    帖子

    26

    积分

    初级影迷

    Rank: 2

    积分
    26
    发表于 2020-2-16 08:59:35 | 显示全部楼层
    怎么接收?
    回复

    使用道具 举报

  • TA的每日心情
    擦汗
    昨天 09:58
  • 签到天数: 29 天

    [LV.4]偶尔看看III

    0

    主题

    43

    帖子

    26

    积分

    初级影迷

    Rank: 2

    积分
    26
    发表于 2020-2-16 09:00:00 | 显示全部楼层
    点进去失效了

    点评

    链接已更新  发表于 2020-2-16 22:10
    回复

    使用道具 举报

  • TA的每日心情
    擦汗
    昨天 09:58
  • 签到天数: 29 天

    [LV.4]偶尔看看III

    0

    主题

    43

    帖子

    26

    积分

    初级影迷

    Rank: 2

    积分
    26
    发表于 2020-2-16 12:13:48 | 显示全部楼层
    什么时候更新一下
    回复

    使用道具 举报

    该用户从未签到

    0

    主题

    13

    帖子

    7

    积分

    入门影迷

    Rank: 1

    积分
    7
    发表于 2020-2-16 22:44:04 | 显示全部楼层
    凡尔赛宫日光灯管天地华宇天
    回复

    使用道具 举报

    您需要登录后才可以回帖 登录 | 立即注册

    本版积分规则

    QQ|Archiver|手机版|小黑屋|影迷乐园  

    GMT+8, 2020-2-26 01:31 , Processed in 0.176395 second(s), 32 queries .

    Powered by Discuz! X3.3

    © 2001-2017 Comsenz Inc.

    快速回复 返回顶部 返回列表