请选择 进入手机版 | 继续访问电脑版

YMLY-影迷乐园-特效字幕 蓝光原盘 1080P 高清动漫电影电视剧

 找回密码
 立即注册
搜索
查看: 26|回复: 4

[修复版] [百度][2000][1080P][运转手之恋][宫泽理惠.屈中恒][数码修复版][2.5GB][MP4]

[复制链接]
  • TA的每日心情
    开心
    2020-2-19 17:31
  • 签到天数: 3 天

    [LV.2]偶尔看看I

    36

    主题

    113

    帖子

    150

    积分

    高级影迷

    Rank: 4

    积分
    150
    发表于 4 天前 | 显示全部楼层 |阅读模式


    ◎译  名 运转手之恋 / The Cabbie
    ◎片  名 運転手之恋
    ◎年  代 2000
    ◎产  地 中国台湾
    ◎类  别 喜剧
    ◎语  言 汉语普通话
    ◎上映日期 2000-11-11(中国台湾)
    ◎IMDb评分  7.1/10 from 193 users
    ◎IMDb链接  https://www.imdb.com/title/tt0265107
    ◎豆瓣评分 8.2/10 from 6684 users
    ◎豆瓣链接 https://movie.douban.com/subject/1296015/
    ◎片  长 94分钟
    ◎导  演 张华坤 Hwa-Kun Chang / 陈以文 Yiwen Chen
    ◎编  剧 苏照彬 Chao-Bin Su
    ◎主  演 宫泽理惠 Rie Miyazawa
           屈中恒 Chung-heng Chu
           太保 Po Tai
           戴立忍 Leon Dai
           蔡灿得 Vega Tsai


    ◎标  签 台湾 | 台湾电影 | 喜剧 | 爱情 | 宫泽理惠 | 2000 | 屈中恒 | 普通人的故事

    ◎简  介  

      青年苏大全(屈中恒饰)的父亲苏周(太保饰)开了一间计程车行,拥有20部计程车。大全自幼在车行里生活,受环境影响,他对驾驶计程车情有独钟。他学校后也开始了计程车司机生活。大全的母亲游希子是位法医,每天都要与尸体打交道,年轻时许多人对她避而远之,唯独苏周接受她,并一起生活,结婚生子。大全的妹妹酷爱调配化学试剂,家里经常发生化学爆炸。
      苏大全没能遇到心怡的女孩,跟父母说不结婚。老人听后着急万分,想法设法来解决。一天执勤的女交警庄静文(宫泽里惠饰)拦住大全的计程车开罚单,大全对静文一见钟情,并展开攻势。开始静文不为所动,但日久天长她不得不面对现实。恋爱戏剧般开始并最终喜结良缘……

    ◎获奖情况  

      第37届台北金马影展(2000)
      金马奖 最佳剧情片(提名)
      金马奖 最佳男配角 太保
      金马奖 最佳女配角(提名) 程秀瑛
      金马奖 最佳原著剧本(提名) 苏照彬
      评审团奖

    1. General
    2. Unique ID                      : 333546405633213881878605341470226627263 (0xFAEEB377B24E7FDFC6844C033F43BABF)
    3. Complete name                  : E:\运转手之恋(数码修复版).TheCabbie.2000.BD-1080p.X264.AAC.CHS.mp4
    4. Format                         : Matroska
    5. Format version                 : Version 4
    6. File size                      : 2.50 GiB
    7. Duration                       : 1 h 34 min
    8. Overall bit rate mode          : Variable
    9. Overall bit rate               : 3 793 kb/s
    10. Encoded date                   : UTC 2018-10-13 02:35:57
    11. Writing application            : mkvmerge v27.0.0 ('Metropolis') 64-bit
    12. Writing library                : libebml v1.3.6 + libmatroska v1.4.9 / Lavf58.12.100
    13. FileExtension_Invalid          : mkv mk3d mka mks

    14. Video
    15. ID                             : 1
    16. Format                         : AVC
    17. Format/Info                    : Advanced Video Codec
    18. Format profile                 : Main@L4
    19. Format settings                : CABAC / 1 Ref Frames
    20. Format settings, CABAC         : Yes
    21. Format settings, Reference fra : 1 frame
    22. Codec ID                       : V_MPEG4/ISO/AVC
    23. Duration                       : 1 h 34 min
    24. Bit rate mode                  : Variable
    25. Bit rate                       : 3 585 kb/s
    26. Maximum bit rate               : 10.9 Mb/s
    27. Width                          : 1 920 pixels
    28. Height                         : 1 080 pixels
    29. Display aspect ratio           : 16:9
    30. Frame rate mode                : Constant
    31. Frame rate                     : 24.000 FPS
    32. Color space                    : YUV
    33. Chroma subsampling             : 4:2:0
    34. Bit depth                      : 8 bits
    35. Scan type                      : Progressive
    36. Bits/(Pixel*Frame)             : 0.072
    37. Stream size                    : 2.36 GiB (94%)
    38. Writing library                : Lavc58.18.100 h264_nvenc
    39. Default                        : Yes
    40. Forced                         : No

    41. Audio
    42. ID                             : 2
    43. Format                         : AAC LC
    44. Format/Info                    : Advanced Audio Codec Low Complexity
    45. Codec ID                       : A_AAC-2
    46. Duration                       : 1 h 34 min
    47. Bit rate                       : 192 kb/s
    48. Channel(s)                     : 2 channels
    49. Channel layout                 : L R
    50. Sampling rate                  : 48.0 kHz
    51. Frame rate                     : 46.875 FPS (1024 SPF)
    52. Compression mode               : Lossy
    53. Delay relative to video        : -21 ms
    54. Stream size                    : 130 MiB (5%)
    55. Writing library                : Lavc58.18.100 aac
    56. Language                       : Chinese
    57. Default                        : Yes
    58. Forced                         : No

    59. Text
    60. ID                             : 3
    61. Format                         : PGS
    62. Muxing mode                    : zlib
    63. Codec ID                       : S_HDMV/PGS
    64. Codec ID/Info                  : Picture based subtitle format used on BDs/HD-DVDs
    65. Duration                       : 1 h 30 min
    66. Bit rate                       : 28.8 kb/s
    67. Count of elements              : 1441
    68. Stream size                    : 18.7 MiB (1%)
    69. Default                        : Yes
    70. Forced                         : No

    复制代码





    购买主题 本主题需向作者支付 20 大洋 才能浏览
    回复

    使用道具 举报

  • TA的每日心情

    昨天 10:22
  • 签到天数: 66 天

    [LV.6]常住居民II

    3

    主题

    368

    帖子

    135

    积分

    中级影迷

    Rank: 3Rank: 3

    积分
    135
    发表于 4 天前 | 显示全部楼层
    回复

    使用道具 举报

  • TA的每日心情
    开心
    6 小时前
  • 签到天数: 71 天

    [LV.6]常住居民II

    4

    主题

    818

    帖子

    96

    积分

    中级影迷

    Rank: 3Rank: 3

    积分
    96
    发表于 4 天前 | 显示全部楼层
    感谢分享。
    回复

    使用道具 举报

  • TA的每日心情
    开心
    15 小时前
  • 签到天数: 88 天

    [LV.6]常住居民II

    6

    主题

    1181

    帖子

    149

    积分

    中级影迷

    Rank: 3Rank: 3

    积分
    149
    发表于 4 天前 | 显示全部楼层
    好资源 支持
    回复

    使用道具 举报

  • TA的每日心情
    开心
    6 小时前
  • 签到天数: 47 天

    [LV.5]常住居民I

    0

    主题

    611

    帖子

    47

    积分

    初级影迷

    Rank: 2

    积分
    47
    发表于 6 小时前 | 显示全部楼层
    谢谢分享!
    回复

    使用道具 举报

    您需要登录后才可以回帖 登录 | 立即注册

    本版积分规则

    QQ|Archiver|手机版|小黑屋|影迷乐园  

    GMT+8, 2020-3-30 15:55 , Processed in 0.138867 second(s), 31 queries .

    Powered by Discuz! X3.3

    © 2001-2017 Comsenz Inc.

    快速回复 返回顶部 返回列表