请选择 进入手机版 | 继续访问电脑版

YMLY-影迷乐园-特效字幕 蓝光原盘 1080P 高清动漫电影电视剧

 找回密码
 立即注册
搜索
查看: 6422|回复: 104

[韩国] [115+百度][2015][4K.2160P][请回答1988.60fps][韩语外挂SUP.ASS中字][20集全][MKV][342.03GB][Reply.1988.2015.Complete.UHDTV.HEVC.10bit.60fps.DD2.0-HThoreau]

  [复制链接]
  • TA的每日心情
    奋斗
    2020-3-1 21:46
  • 签到天数: 446 天

    [LV.9]以坛为家II

    2806

    主题

    3359

    帖子

    1万

    积分

    影迷皇帝

    Rank: 20Rank: 20Rank: 20Rank: 20Rank: 20

    积分
    15057

    贵族勋章土豪勋章小土豪勋章主题达人百分百好孩子内测勋章最佳新人影迷女神十二生肖之猪水瓶座勋章富甲一方

    发表于 2020-4-4 21:28:29 | 显示全部楼层 |阅读模式


    ◎译  名 请回答1988 / Reply 1988 / 回应吧1988
    ◎片  名 응답하라 1988
    ◎年  代 2015
    ◎产  地 韩国
    ◎类  别 剧情 / 喜剧 / 爱情
    ◎语  言 韩语
    ◎上映日期 2015-11-06(韩国)
    ◎IMDb评分  8.6/10 from 1118 users
    ◎IMDb链接  http://www.imdb.com/title/tt5182866
    ◎豆瓣评分 9.7/10 from 309261 users
    ◎豆瓣链接 https://movie.douban.com/subject/26302614/
    ◎集  数 20
    ◎片  长 90分钟
    ◎导  演 申源浩 Won-Ho Shin
    ◎编  剧 李有静 Woo-Jeong Lee
    ◎主  演 成东日 Dong-il Sung
          李日花 Il-hwa Lee
          罗美兰 Mi-ran Ra
          金成钧 Sung-Kyun Kim
          崔武成 Moo-seong Choi
          金善英 Sun-Young Kim
          柳慧英 Hye-yeong Ryoo
          李惠利 Hyeri Lee
          柳俊烈 Joon-Yeol Ryoo
          高庚杓 Kyung-pyo Go
          朴宝剑 Bo-Gum Park
          安在洪 Jae-hong Ahn
          李东辉 Dong-Hwi Lee
          崔胜元 Seung-won Choi
          金秀路 Su-ro Kim
          李美妍 Mi-yeon Lee
          金柱赫 Ju-hyuk Kim
          全美善 Mi-seon Jeon
          李世英 Se-yeong Lee
          金英玉 Young-ok Kim
          朴智允 Ji-Yoon Park
          李秀卿 Soo-kyung Lee
          金太勋 Tae-hoon Kim
          朴正民 Jeong-min Park
          高昌锡 Chang-Seok Ko


    ◎标  签 温情 | 青春 | 亲情 | 成长 | 请回答1988 | 韩剧 | 韩国 | 请回答系列

    ◎简  介  

      《请回答1988》为韩国tvN自2015年10月30日起播出的金土连续剧,由《请回答1997》、《请回答1994》制作班底申元浩导演和李祐汀作家再度携手合作。此剧与以往将初恋作为重心的另两部同系列作品不同,将以家族关系和邻里感情作为剧情主轴。而且1988年也是香港电影的巅峰时期,张国荣、周润发等影星在韩国皆具有高知名度,因此也可能被列为剧情素材之一。

    ◎获奖情况  

      第52届百想艺术大赏(2016)
      电视类 最佳电视剧(提名)
      电视类 最佳导演 申源浩
      电视类 最佳女主角奖(提名) 罗美兰
      电视类 最佳新人男演员 柳俊烈
      电视类 最佳新人男演员(提名) 安在洪 / 李东辉
      电视类 最佳新人女演员(提名) 柳慧英 / 李惠利
      电视类 最佳剧本(提名) Woo-jung Lee
      电视类 最佳人气男演员(提名) 朴宝剑 / 柳俊烈
      电视类 最佳人气女演员(提名) 李惠利 / 罗美兰

      第2届豆瓣电影年度榜单(2015)
      评分最高的韩剧
    1. General
    2. Unique ID                      : 213688806091663900684905642143984468492 (0xA0C2F7902523B2719767F4292681420C)
    3. Format                         : Matroska
    4. Format version                 : Version 4
    5. File size                      : 16.7 GiB
    6. Duration                       : 1 h 31 min
    7. Overall bit rate               : 26.2 Mb/s
    8. Movie name                     : [UXN] 응답하라 1988.E08.151128.UHDTV.HEVC.10bit.60f-HThoreau
    9. Encoded date                   : UTC 2017-01-28 18:35:05
    10. Writing application            : mkvmerge v9.8.0 ('Kuglblids') 64bit
    11. Writing library                : libebml v1.3.4 + libmatroska v1.4.5
    12. Attachments                    : 응답하라 1988.jpg

    13. Video
    14. ID                             : 1
    15. Format                         : HEVC
    16. Format/Info                    : High Efficiency Video Coding
    17. Format profile                 : Main 10@L5.1@High
    18. Codec ID                       : V_MPEGH/ISO/HEVC
    19. Duration                       : 1 h 31 min
    20. Bit rate                       : 25.9 Mb/s
    21. Width                          : 3 840 pixels
    22. Height                         : 2 160 pixels
    23. Display aspect ratio           : 16:9
    24. Frame rate mode                : Constant
    25. Frame rate                     : 59.940 (60000/1001) FPS
    26. Standard                       : Component
    27. Color space                    : YUV
    28. Chroma subsampling             : 4:2:0 (Type 0)
    29. Bit depth                      : 10 bits
    30. Bits/(Pixel*Frame)             : 0.052
    31. Stream size                    : 16.4 GiB (99%)
    32. Title                          : [UXN] 응답하라 1988.E08.151128.UHDTV.HEVC.10bit.60f-HThoreau
    33. Language                       : Korean
    34. Default                        : Yes
    35. Forced                         : No
    36. Color range                    : Limited
    37. Color primaries                : BT.709
    38. Transfer characteristics       : BT.709
    39. Matrix coefficients            : BT.709

    40. Audio
    41. ID                             : 2
    42. Format                         : AC-3
    43. Format/Info                    : Audio Coding 3
    44. Commercial name                : Dolby Digital
    45. Codec ID                       : A_AC3
    46. Duration                       : 1 h 31 min
    47. Bit rate mode                  : Constant
    48. Bit rate                       : 384 kb/s
    49. Channel(s)                     : 2 channels
    50. Channel layout                 : L R
    51. Sampling rate                  : 48.0 kHz
    52. Frame rate                     : 31.250 FPS (1536 SPF)
    53. Bit depth                      : 16 bits
    54. Compression mode               : Lossy
    55. Delay relative to video        : -129 ms
    56. Stream size                    : 250 MiB (1%)
    57. Title                          : [UXN] 응답하라 1988.E08.151128.UHDTV
    58. Language                       : Korean
    59. Service kind                   : Complete Main
    60. Default                        : Yes
    61. Forced                         : No
    复制代码









    购买主题 已有 80 人购买  本主题需向作者支付 150 大洋 才能浏览
    回复

    使用道具 举报

  • TA的每日心情
    开心
    2020-9-15 06:53
  • 签到天数: 158 天

    [LV.7]常住居民III

    6

    主题

    2199

    帖子

    125

    积分

    中级影迷

    Rank: 3Rank: 3

    积分
    125
    QQ
    发表于 2020-4-5 09:03:55 | 显示全部楼层
    谢谢分享好资源
    回复

    使用道具 举报

  • TA的每日心情
    无聊
    昨天 09:31
  • 签到天数: 166 天

    [LV.7]常住居民III

    0

    主题

    234

    帖子

    36

    积分

    初级影迷

    Rank: 2

    积分
    36
    发表于 2020-4-5 11:04:46 | 显示全部楼层
    这个版本太强了
    回复

    使用道具 举报

  • TA的每日心情
    开心
    昨天 00:45
  • 签到天数: 236 天

    [LV.7]常住居民III

    6

    主题

    1971

    帖子

    449

    积分

    超级影迷

    Rank: 6Rank: 6

    积分
    449
    发表于 2020-4-5 11:44:07 | 显示全部楼层
    感谢分享。
    回复

    使用道具 举报

    该用户从未签到

    0

    主题

    4

    帖子

    18

    积分

    入门影迷

    Rank: 1

    积分
    18
    发表于 2020-4-5 14:59:26 | 显示全部楼层

    感谢分享。
    回复

    使用道具 举报

  • TA的每日心情
    郁闷
    前天 12:03
  • 签到天数: 171 天

    [LV.7]常住居民III

    0

    主题

    231

    帖子

    39

    积分

    初级影迷

    Rank: 2

    积分
    39
    发表于 2020-4-6 17:18:08 | 显示全部楼层
    感谢分享。
    回复

    使用道具 举报

  • TA的每日心情
    开心
    4 天前
  • 签到天数: 104 天

    [LV.6]常住居民II

    0

    主题

    379

    帖子

    70

    积分

    中级影迷

    Rank: 3Rank: 3

    积分
    70
    发表于 2020-4-8 21:37:19 | 显示全部楼层
    多谢楼主好片
    回复

    使用道具 举报

    该用户从未签到

    0

    主题

    2

    帖子

    18

    积分

    入门影迷

    Rank: 1

    积分
    18
    发表于 2020-4-9 09:42:25 | 显示全部楼层
    66666666666
    回复

    使用道具 举报

    该用户从未签到

    0

    主题

    2

    帖子

    18

    积分

    入门影迷

    Rank: 1

    积分
    18
    发表于 2020-4-10 12:27:20 | 显示全部楼层
    谢谢楼主的分享
    回复

    使用道具 举报

  • TA的每日心情
    难过
    2020-5-14 20:51
  • 签到天数: 4 天

    [LV.2]偶尔看看I

    0

    主题

    9

    帖子

    18

    积分

    入门影迷

    Rank: 1

    积分
    18
    发表于 2020-4-10 13:00:56 | 显示全部楼层
    谢谢分享好资源
    回复

    使用道具 举报

    您需要登录后才可以回帖 登录 | 立即注册

    本版积分规则

    QQ|Archiver|手机版|小黑屋|影迷乐园

    GMT+8, 2020-9-28 04:12 , Processed in 0.110644 second(s), 30 queries .

    Powered by Discuz! X3.4

    Copyright © 2001-2020, Tencent Cloud.

    快速回复 返回顶部 返回列表