请选择 进入手机版 | 继续访问电脑版

YMLY-影迷乐园-特效字幕 蓝光原盘 1080P 高清动漫电影电视剧

 找回密码
 立即注册
搜索
查看: 2606|回复: 50

[日本] [百度][2002][540P.720P.1080P][火影忍者][TV720全集+1-11剧场版全集+ova1-3+ost+无损音乐合集][国日双语中字][304.67GB][MKV]

  [复制链接]
  • TA的每日心情
    奋斗
    2020-1-9 12:25
  • 签到天数: 45 天

    [LV.5]常住居民I

    46

    主题

    104

    帖子

    439

    积分

    ★★贵宾组★★

    Rank: 16Rank: 16Rank: 16Rank: 16

    积分
    439
    发表于 2020-4-5 12:40:07 | 显示全部楼层 |阅读模式
    应求发布:

    火影忍者国日双语001-220[ 720×544] 200M左右一集
    火影忍者
    国日双语221-273 [960×768] 500M左右一集
    火影忍者
    国日双语274-465 [1280×720] 500M左右一集
    火影忍者
    国日双语466-720 [1920×1080] 500M左右一集


    tv版和1-11剧场版都是国粤日三语




    ◎译  名 火影忍者 / Naruto / 狐忍
    ◎片  名 NARUTO -ナルト-
    ◎年  代 2002
    ◎产  地 日本
    ◎类  别 喜剧 / 动画 / 冒险
    ◎语  言 日语 / 英语
    ◎上映日期 2002-10-03(日本)
    ◎IMDb评分  8.3/10 from 60504 users
    ◎IMDb链接  https://www.imdb.com/title/tt0409591
    ◎豆瓣评分 8.9/10 from 76776 users
    ◎豆瓣链接 https://movie.douban.com/subject/1427318/
    ◎片  长 24分钟
    ◎导  演 伊达勇登 Date Hayato / 村田雅彦 Masahiko Murata / 都留稔幸 Tsuru Toshiyuki / 若林厚史 Atsushi Wakabayashi / 小坂春女 Kosaka Harume / 川口敬一郎 Keiichirou Kawaguchi
    ◎编  剧 隅泽克之 Katsuyuki Sumizawa / 武上纯希 Junki Takegami / 大和屋晓 Akatsuki Yamatoya / 西园悟 Nishizono Satoru / 横手美智子 Michiko Yokote
    ◎主  演 竹内顺子 Junko Takeuchi
           杉山纪彰 Noriaki Sugiyama
           中村千绘 Chie Nakamura
           井上和彦 Kazuhiko Inoue
           关俊彦 Toshihiko Seki
           松本和香子 Kujira
           大塚芳忠 Hôchû Ôtsuka
           胜生真沙子 Masako Katsuki
           柴田秀胜 Hidekatsu Shibata
           森久保祥太郎 Shotaro Morikubo
           伊藤健太郎 Kentarô Itô
           柚木凉香 Ryôka Yuzuki
           小杉十郎太 Jûrôta Kosugi
           增川洋一 Yoichi Masukawa
           远近孝一 Kôichi Tôchika
           田村由加莉 Yukari Tamura
           江原正士 Masashi Ebara
           水树奈奈 Nana Mizuki
           鸟海浩辅 Kosuke Toriumi
           川田绅司 Shinji Kawada
           落合露美 Rumi Ochiai
           大谷育江 Ikue Ootani
           重松朋 Tomo Shigematsu
           下屋则子 Noriko Shitaya
           飞田展男 Nobuo Tobita
           石冢运升 Unshô Ishizuka
           浅野真由美 Mayumi Asano
           石田彰 Akira Ishida
           加濑康之 Yasuyuki Kase
           朴璐美 Romi Park
           中田让治 Jôji Nakata
           保志总一朗 Soichiro Hoshi
           神奈延年 Nobutoshi Canna
           三木真一郎 Shinichirô Miki
           中村大树 Daiki Nakamura
           家中宏 Hiroshi Yanaka
           福田信昭 Nobuaki Fukuda
           楠大典 Taiten Kusunoki
           本田贵子 Takako Honda
           平田广明 Hiroaki Hirata
           津田健次郎 Kenjirô Tsuda
           坪井智浩 Tomohiro Tsuboi
           河野智之 Tomoyuki Kôno
           根本圭子 Keiko Nemoto
           铃木琢磨 Takuma Suzuki
           小林由美子 Yumiko Kobayashi
           津田英三 Tsuda Eizou
           伊藤和晃 Itou Kazuaki
           浅井清己 Kiyomi Asai
           佐佐木望 Nozomu Sasaki
           宫田光 Hikaru Miyata
           翠准子 Junko Midori
           石川英郎 Hideo Ishikawa
           檀臣幸 Tomoyuki Dan
           菅生隆之 Takayuki Sugo
           堀内贤雄 Ken'yû Horiuchi
           田中正彦 Masahiko Tanaka
           三宅健太 Kenta Miyake
           千叶进步 Susumu Chiba
           咲野俊介 Shunsuke Sakuya
           渡边明乃 Akeno Watanabe
           森川智之 Toshiyuki Morikawa
           青野武 Takeshi Aono
           石川静 Shizuka Ishikawa
           滨田贤二 Kenji Hamada
           渡部猛 Takeshi Watabe
           天田益男 Masuo Amada
           能登麻美子 Mamiko Noto
           辻亲八 Shinpachi Tsuji
           津村真琴 Makoto Tsumura
           菅沼久义 Hisayoshi Suganuma
           山本泰辅 Taisuke Yamamoto


    ◎标  签 火影忍者 | 动漫 | 日本 | 动画 | 热血 | 日本动画 | Naruto | 日本动漫

    ◎简  介  

      十多年前一只拥有巨大威力的妖兽“九尾妖狐”袭击了木叶忍者村,当时的第四代火影拼尽全力,以自己的生命为代价将“九尾妖狐”封印在了刚出生的鸣人身上。木叶村终于恢复了平静,但村民们却把鸣人当成像“九尾妖狐”那样的怪物看待,所有人都疏远他。鸣人自小就孤苦无依,一晃十多年过去了,少年鸣人考入了木叶村的忍者学校,结识了好朋友佐助和小樱。佐助是宇智波家族的传人之一,当他还是小孩的时候他的哥哥——一个已经拥有高超忍术的忍者将他们家族的人都杀死了,然后投靠了一直想将木叶村毁灭的大蛇丸,佐助自小就发誓要超越哥哥,为家族报仇。鸣人他们在忍者学校得到了教官卡卡西的精心指点,在他的帮助下去迎接成长中的一次又一次挑战!
    1. General
    2. Unique ID                      : 307000629815181967259894159895710788060 (0xE6F62BABD4AF82D4D68C668701C9E9DC)
    3. Format                         : Matroska
    4. Format version                 : Version 4
    5. File size                      : 199 MiB
    6. Duration                       : 26 min 17 s
    7. Overall bit rate               : 1 057 kb/s
    8. Encoded date                   : UTC 2018-07-11 08:21:33
    9. Writing application            : mkvmerge v21.0.0 ('Tardigrades Will Inherit The Earth') 64-bit
    10. Writing library                : libebml v1.3.5 + libmatroska v1.4.8

    11. Video
    12. ID                             : 2
    13. Format                         : AVC
    14. Format/Info                    : Advanced Video Codec
    15. Format profile                 : High@L3
    16. Format settings                : CABAC / 5 Ref Frames
    17. Format settings, CABAC         : Yes
    18. Format settings, Reference fra : 5 frames
    19. Codec ID                       : V_MPEG4/ISO/AVC
    20. Duration                       : 23 min 21 s
    21. Bit rate                       : 921 kb/s
    22. Width                          : 720 pixels
    23. Height                         : 544 pixels
    24. Display aspect ratio           : 4:3
    25. Frame rate mode                : Constant
    26. Frame rate                     : 23.976 (24000/1001) FPS
    27. Color space                    : YUV
    28. Chroma subsampling             : 4:2:0
    29. Bit depth                      : 8 bits
    30. Scan type                      : Progressive
    31. Bits/(Pixel*Frame)             : 0.098
    32. Stream size                    : 154 MiB (77%)
    33. Title                          : 20180711龍爺封裝
    34. Writing library                : x264 core 98 r1649 c54c47d
    35. Encoding settings              : cabac=1 / ref=5 / deblock=1:-1:-1 / analyse=0x3:0x133 / me=umh / subme=6 / psy=1 / psy_rd=1.00:0.00 / mixed_ref=1 / me_range=16 / chroma_me=1 / trellis=2 / 8x8dct=1 / cqm=0 / deadzone=21,11 / fast_pskip=1 / chroma_qp_offset=-2 / threads=6 / sliced_threads=0 / nr=0 / decimate=1 / interlaced=0 / constrained_intra=0 / bframes=3 / b_pyramid=0 / b_adapt=2 / b_bias=0 / direct=3 / weightb=1 / weightp=2 / keyint=250 / keyint_min=25 / scenecut=40 / intra_refresh=0 / rc_lookahead=40 / rc=2pass / mbtree=1 / bitrate=921 / ratetol=1.0 / qcomp=0.60 / qpmin=10 / qpmax=51 / qpstep=4 / cplxblur=20.0 / qblur=0.5 / ip_ratio=1.40 / aq=1:1.00
    36. Default                        : Yes
    37. Forced                         : No

    38. Audio #1
    39. ID                             : 1
    40. Format                         : AAC LC
    41. Format/Info                    : Advanced Audio Codec Low Complexity
    42. Codec ID                       : A_AAC-2
    43. Duration                       : 26 min 17 s
    44. Bit rate                       : 64.6 kb/s
    45. Channel(s)                     : 2 channels
    46. Channel layout                 : L R
    47. Sampling rate                  : 44.1 kHz
    48. Frame rate                     : 43.066 FPS (1024 SPF)
    49. Compression mode               : Lossy
    50. Stream size                    : 12.1 MiB (6%)
    51. Language                       : Chinese
    52. Default                        : No
    53. Forced                         : No

    54. Audio #2
    55. ID                             : 3
    56. Format                         : AAC LC
    57. Format/Info                    : Advanced Audio Codec Low Complexity
    58. Codec ID                       : A_AAC-2
    59. Duration                       : 23 min 22 s
    60. Bit rate                       : 192 kb/s
    61. Channel(s)                     : 2 channels
    62. Channel layout                 : L R
    63. Sampling rate                  : 48.0 kHz
    64. Frame rate                     : 46.875 FPS (1024 SPF)
    65. Compression mode               : Lossy
    66. Stream size                    : 32.1 MiB (16%)
    67. Language                       : Japanese
    68. Default                        : Yes
    69. Forced                         : No

    70. Text #1
    71. ID                             : 4
    72. Format                         : ASS
    73. Codec ID                       : S_TEXT/ASS
    74. Codec ID/Info                  : Advanced Sub Station Alpha
    75. Duration                       : 21 min 21 s
    76. Bit rate                       : 87 b/s
    77. Count of elements              : 241
    78. Compression mode               : Lossless
    79. Stream size                    : 13.7 KiB (0%)
    80. Default                        : Yes
    81. Forced                         : No

    82. Text #2
    83. ID                             : 5
    84. Format                         : ASS
    85. Codec ID                       : S_TEXT/ASS
    86. Codec ID/Info                  : Advanced Sub Station Alpha
    87. Duration                       : 21 min 21 s
    88. Bit rate                       : 87 b/s
    89. Count of elements              : 241
    90. Compression mode               : Lossless
    91. Stream size                    : 13.7 KiB (0%)
    92. Default                        : No
    93. Forced                         : No
    复制代码
    1. General
    2. Unique ID                      : 160774594830848812945289356367813224478 (0x78F40F86A30A5BA1406CE94268A5281E)
    3. Format                         : Matroska
    4. Format version                 : Version 4
    5. File size                      : 572 MiB
    6. Duration                       : 23 min 15 s
    7. Overall bit rate mode          : Variable
    8. Overall bit rate               : 3 440 kb/s
    9. Encoded date                   : UTC 2018-07-28 14:12:15
    10. Writing application            : mkvmerge v21.0.0 ('Tardigrades Will Inherit The Earth') 64-bit
    11. Writing library                : libebml v1.3.5 + libmatroska v1.4.8

    12. Video
    13. ID                             : 2
    14. Format                         : AVC
    15. Format/Info                    : Advanced Video Codec
    16. Format profile                 : High@L4
    17. Format settings                : CABAC / 4 Ref Frames
    18. Format settings, CABAC         : Yes
    19. Format settings, Reference fra : 4 frames
    20. Codec ID                       : V_MPEG4/ISO/AVC
    21. Duration                       : 23 min 9 s
    22. Bit rate                       : 3 072 kb/s
    23. Width                          : 1 920 pixels
    24. Height                         : 1 080 pixels
    25. Display aspect ratio           : 16:9
    26. Frame rate mode                : Variable
    27. Frame rate                     : 23.976 (23976/1000) FPS
    28. Color space                    : YUV
    29. Chroma subsampling             : 4:2:0
    30. Bit depth                      : 8 bits
    31. Scan type                      : Progressive
    32. Bits/(Pixel*Frame)             : 0.062
    33. Stream size                    : 508 MiB (89%)
    34. Title                          : 2018龍爺封裝
    35. Writing library                : x264 core 120 r2120 0c7dab9
    36. Encoding settings              : cabac=1 / ref=4 / deblock=1:1:1 / analyse=0x3:0x113 / me=umh / subme=8 / psy=1 / psy_rd=0.40:0.00 / mixed_ref=1 / me_range=16 / chroma_me=1 / trellis=1 / 8x8dct=1 / cqm=0 / deadzone=21,11 / fast_pskip=1 / chroma_qp_offset=-2 / threads=8 / sliced_threads=0 / nr=0 / decimate=1 / interlaced=0 / bluray_compat=0 / constrained_intra=0 / bframes=3 / b_pyramid=2 / b_adapt=2 / b_bias=0 / direct=3 / weightb=1 / open_gop=0 / weightp=2 / keyint=250 / keyint_min=23 / scenecut=40 / intra_refresh=0 / rc_lookahead=50 / rc=2pass / mbtree=1 / bitrate=3072 / ratetol=1.0 / qcomp=0.60 / qpmin=0 / qpmax=69 / qpstep=4 / cplxblur=20.0 / qblur=0.5 / vbv_maxrate=6144 / vbv_bufsize=15360 / nal_hrd=none / ip_ratio=1.40 / aq=1:0.60
    37. Default                        : Yes
    38. Forced                         : Yes

    39. Audio #1
    40. ID                             : 1
    41. Format                         : MPEG Audio
    42. Format version                 : Version 1
    43. Format profile                 : Layer 3
    44. Format settings                : Joint stereo / MS Stereo
    45. Codec ID                       : A_MPEG/L3
    46. Codec ID/Hint                  : MP3
    47. Duration                       : 23 min 15 s
    48. Bit rate mode                  : Variable
    49. Bit rate                       : 256 kb/s
    50. Channel(s)                     : 2 channels
    51. Sampling rate                  : 48.0 kHz
    52. Frame rate                     : 41.667 FPS (1152 SPF)
    53. Compression mode               : Lossy
    54. Stream size                    : 42.6 MiB (7%)
    55. Writing library                : LAMEUU0.Âú0«‚12›Yf?¢
    56. Language                       : Chinese
    57. Default                        : No
    58. Forced                         : No

    59. Audio #2
    60. ID                             : 3
    61. Format                         : AAC LC
    62. Format/Info                    : Advanced Audio Codec Low Complexity
    63. Codec ID                       : A_AAC-2
    64. Duration                       : 23 min 9 s
    65. Bit rate                       : 128 kb/s
    66. Channel(s)                     : 2 channels
    67. Channel layout                 : L R
    68. Sampling rate                  : 44.1 kHz
    69. Frame rate                     : 43.066 FPS (1024 SPF)
    70. Compression mode               : Lossy
    71. Stream size                    : 21.2 MiB (4%)
    72. Language                       : Japanese
    73. Default                        : Yes
    74. Forced                         : Yes

    75. Text #1
    76. ID                             : 4
    77. Format                         : ASS
    78. Codec ID                       : S_TEXT/ASS
    79. Codec ID/Info                  : Advanced Sub Station Alpha
    80. Duration                       : 23 min 4 s
    81. Bit rate                       : 98 b/s
    82. Count of elements              : 248
    83. Compression mode               : Lossless
    84. Stream size                    : 16.7 KiB (0%)
    85. Language                       : Chinese
    86. Default                        : Yes
    87. Forced                         : No

    88. Text #2
    89. ID                             : 5
    90. Format                         : ASS
    91. Codec ID                       : S_TEXT/ASS
    92. Codec ID/Info                  : Advanced Sub Station Alpha
    93. Duration                       : 23 min 4 s
    94. Bit rate                       : 98 b/s
    95. Count of elements              : 248
    96. Compression mode               : Lossless
    97. Stream size                    : 16.7 KiB (0%)
    98. Language                       : Chinese
    99. Default                        : No
    100. Forced                         : No
    复制代码








    购买主题 已有 44 人购买  本主题需向作者支付 150 大洋 才能浏览
    回复

    使用道具 举报

  • TA的每日心情
    开心
    1 小时前
  • 签到天数: 319 天

    [LV.8]以坛为家I

    5

    主题

    2366

    帖子

    263

    积分

    超级影迷

    Rank: 6Rank: 6

    积分
    263
    发表于 2020-4-5 16:14:50 | 显示全部楼层
    好资源 支持
    回复

    使用道具 举报

  • TA的每日心情

    2020-12-28 23:42
  • 签到天数: 73 天

    [LV.6]常住居民II

    2

    主题

    322

    帖子

    112

    积分

    中级影迷

    Rank: 3Rank: 3

    积分
    112
    发表于 2020-4-5 19:34:33 | 显示全部楼层
    剧场版1080P吗?
    回复

    使用道具 举报

    该用户从未签到

    0

    主题

    353

    帖子

    79

    积分

    中级影迷

    Rank: 3Rank: 3

    积分
    79
    发表于 2020-4-5 23:20:15 | 显示全部楼层
    好资源 支持
    回复

    使用道具 举报

    该用户从未签到

    0

    主题

    3

    帖子

    13

    积分

    入门影迷

    Rank: 1

    积分
    13
    发表于 2020-4-6 22:36:14 | 显示全部楼层
    感谢分享啊啊
    回复

    使用道具 举报

  • TA的每日心情
    无聊
    2020-7-18 01:47
  • 签到天数: 38 天

    [LV.5]常住居民I

    0

    主题

    94

    帖子

    5

    积分

    入门影迷

    Rank: 1

    积分
    5
    发表于 2020-4-8 17:11:54 | 显示全部楼层
    曾经很喜欢的一部,可惜还是超不过海贼王
    回复

    使用道具 举报

  • TA的每日心情
    开心
    2020-6-24 01:49
  • 签到天数: 10 天

    [LV.3]偶尔看看II

    0

    主题

    18

    帖子

    7

    积分

    入门影迷

    Rank: 1

    积分
    7
    发表于 2020-4-9 20:53:09 | 显示全部楼层
    谢谢楼主分享
    回复

    使用道具 举报

  • TA的每日心情
    开心
    2020-4-29 20:42
  • 签到天数: 14 天

    [LV.3]偶尔看看II

    0

    主题

    106

    帖子

    35

    积分

    初级影迷

    Rank: 2

    积分
    35
    发表于 2020-4-12 14:37:18 | 显示全部楼层
    多谢分享。。。。。。。。。
    回复

    使用道具 举报

  • TA的每日心情
    开心
    2020-8-10 00:17
  • 签到天数: 96 天

    [LV.6]常住居民II

    16

    主题

    286

    帖子

    223

    积分

    高级影迷

    Rank: 4

    积分
    223
    发表于 2020-4-13 23:46:09 | 显示全部楼层
    十分感谢,感谢楼主
    郑重声明:
    本人提供的所有影视作品均是在网上搜集,任何涉及商业盈利目的均不得使用,否则产生的一切后果将由您自己承担!
    本人不对本人所发布的任何内容负任何法律责任!该下载内容仅做宽带测试使用,请在下载后24小时内删除。请购买正版!
    本人列出的文件没有保存在本站的服务器上,本人仅负责连接,本人对被传播文件的内容一无所知。
    (翻译过来就是,我不会展示任何涉及本人账号{如115或百度云}的分享)
    回复

    使用道具 举报

  • TA的每日心情
    难过
    2020-9-28 23:29
  • 签到天数: 67 天

    [LV.6]常住居民II

    0

    主题

    322

    帖子

    24

    积分

    入门影迷

    Rank: 1

    积分
    24
    发表于 2020-4-15 12:44:15 | 显示全部楼层
    好贵。感谢楼主
    回复

    使用道具 举报

    您需要登录后才可以回帖 登录 | 立即注册

    本版积分规则

    QQ|Archiver|手机版|小黑屋|影迷乐园

    GMT+8, 2021-3-8 02:05 , Processed in 0.098498 second(s), 27 queries .

    Powered by Discuz! X3.4

    Copyright © 2001-2020, Tencent Cloud.

    快速回复 返回顶部 返回列表