请选择 进入手机版 | 继续访问电脑版

YMLY-影迷乐园-特效字幕 蓝光原盘 1080P 高清动漫电影电视剧

 找回密码
 立即注册
搜索
查看: 738|回复: 31

[美国] [百度][2009-2015][1080P][废柴联盟S01-S06][多国语言.简繁多国字幕][MKV][250.93GB][Community.S01-S06.1080p.NF.WEB-DL.DDP5.1.x264-Ao]

[复制链接]
  • TA的每日心情
    慵懒
    1 小时前
  • 签到天数: 472 天

    [LV.9]以坛为家II

    565

    主题

    1245

    帖子

    6070

    积分

    超级版主

    Rank: 16Rank: 16Rank: 16Rank: 16

    积分
    6070

    超版勋章版主勋章优秀版主土豪勋章小土豪勋章主题达人百分百好孩子最佳新人影迷男神富甲一方十二生肖之猴巨蟹座勋章

    发表于 2020-8-17 14:21:36 | 显示全部楼层 |阅读模式
    注:默认语言为德语。







    ◎译  名 废柴联盟 第一季 / 废材联盟 / 废柴再造 / 社区大学 / 社区学院 / 社区生活
    ◎片  名 Community Season 1
    ◎年  代 2009
    ◎产  地 美国
    ◎类  别 喜剧
    ◎语  言 英语 / 西班牙语 / 阿拉伯语 / 汉语普通话
    ◎上映日期 2009-09-17(美国)
    ◎IMDb评分  8.5/10 from 193262 users
    ◎IMDb链接  https://www.imdb.com/title/tt1439629
    ◎豆瓣评分 8.7/10 from 24388 users
    ◎豆瓣链接 https://movie.douban.com/subject/3741764/
    ◎集  数 25
    ◎片  长 22分钟
    ◎导  演 乔·卢素 Joe Russo / 安东尼·卢素 Anthony Russo
    ◎编  剧 丹·哈萌 Dan Harmon
    ◎主  演 切维·切斯 Chevy Chase
           乔尔·麦克哈尔 Joel McHale
           吉莉安·雅各布斯 Gillian Jacobs
           伊薇特·尼科尔·布朗 Yvette Nicole Brown
           丹尼·朴迪 Danny Pudi
           爱丽森·布里 Alison Brie
           唐纳德·格洛弗 Donald Glover


    ◎标  签 美剧 | 喜剧 | 美国 | NBC | 电视剧 | 2009 | 搞笑 | 情景喜剧

    ◎简  介  

      长相帅气的Jeff(乔尔•麦克哈尔 Joel McHale 饰)因伪造大学文凭被吊销了律师执照。为了能弄到文凭,选择加入Greendale社区大学。为接近西班牙语课上的冰山美人Britta(吉莉安•雅各布斯 Gillian Jacobs 饰),Jeff伪造了一个西班牙语学习小组,却意外的招来了一帮性格各异的组员。
      热爱拍摄电影的阿拉伯人Abed(丹尼•朴迪 Danny Pudi 饰),曾是橄榄球健儿的Troy(唐纳德•格洛弗 Donald Glover 饰),没有安全感的犹太美女Annie(爱丽森•布里 Alison Brie 饰),离异黑人中年妇女Shirley(伊薇特•尼科尔•布朗 Yvette Nicole Brown 饰),离婚7次并心仪Shirley的Pierce(切维•切斯 Chevy Chase 饰)。
      这个充满“奇人异士”的学习小组到底会带来怎么笑料百出的故事呢?
    1. General
    2. Unique ID                      : 307091728763453839383439066799367153788 (0xE707B7323629F98E2590401AEAEE687C)
    3. Complete name                  : E:\影视\Community.S01.1080p.NF.WEB-DL.DDP5.1.x264-Ao\Community.S01E01.1080p.NF.WEB-DL.DDP5.1.x264-Ao.mkv
    4. Format                         : Matroska
    5. Format version                 : Version 4
    6. File size                      : 2.32 GiB
    7. Duration                       : 21 min 55 s
    8. Overall bit rate mode          : Variable
    9. Overall bit rate               : 15.1 Mb/s
    10. Encoded date                   : UTC 2001-01-01 00:00:00
    11. Writing application            : mkvmerge v34.0.0 ('Sight and Seen') 64-bit
    12. Writing library                : libebml v1.3.9 + libmatroska v1.5.2

    13. Video
    14. ID                             : 1
    15. Format                         : AVC
    16. Format/Info                    : Advanced Video Codec
    17. Format profile                 : Main@L4
    18. Format settings                : CABAC / 3 Ref Frames
    19. Format settings, CABAC         : Yes
    20. Format settings, Reference fra : 3 frames
    21. Codec ID                       : V_MPEG4/ISO/AVC
    22. Duration                       : 21 min 55 s
    23. Bit rate mode                  : Variable
    24. Bit rate                       : 7 500 kb/s
    25. Maximum bit rate               : 11.2 Mb/s
    26. Width                          : 1 920 pixels
    27. Height                         : 1 080 pixels
    28. Display aspect ratio           : 16:9
    29. Frame rate mode                : Constant
    30. Frame rate                     : 23.976 (24000/1001) FPS
    31. Color space                    : YUV
    32. Chroma subsampling             : 4:2:0
    33. Bit depth                      : 8 bits
    34. Scan type                      : Progressive
    35. Bits/(Pixel*Frame)             : 0.151
    36. Stream size                    : 1.12 GiB (48%)
    37. Writing library                : x264 core 148 r2715 7e75228
    38. Encoding settings              : cabac=1 / ref=3 / deblock=1:0:0 / analyse=0x1:0x111 / me=umh / subme=10 / psy=1 / psy_rd=1.00:0.00 / mixed_ref=1 / me_range=24 / chroma_me=1 / trellis=2 / 8x8dct=0 / cqm=0 / deadzone=21,11 / fast_pskip=1 / chroma_qp_offset=-2 / threads=8 / lookahead_threads=1 / sliced_threads=0 / nr=0 / decimate=1 / interlaced=0 / bluray_compat=0 / stitchable=1 / constrained_intra=0 / bframes=2 / b_pyramid=0 / b_adapt=2 / b_bias=0 / direct=3 / weightb=1 / open_gop=0 / weightp=2 / keyint=48 / keyint_min=25 / scenecut=0 / intra_refresh=0 / rc_lookahead=48 / rc=2pass / mbtree=1 / bitrate=7500 / ratetol=1.0 / qcomp=0.50 / qpmin=6 / qpmax=51 / qpstep=4 / cplxblur=20.0 / qblur=0.5 / vbv_maxrate=11250 / vbv_bufsize=15000 / nal_hrd=vbr / filler=0 / ip_ratio=1.40 / aq=1:1.00
    39. Default                        : Yes
    40. Forced                         : No

    41. Audio #1
    42. ID                             : 2
    43. Format                         : E-AC-3
    44. Format/Info                    : Enhanced AC-3
    45. Commercial name                : Dolby Digital Plus
    46. Codec ID                       : A_EAC3
    47. Duration                       : 21 min 55 s
    48. Bit rate mode                  : Constant
    49. Bit rate                       : 640 kb/s
    50. Channel(s)                     : 6 channels
    51. Channel layout                 : L R C LFE Ls Rs
    52. Sampling rate                  : 48.0 kHz
    53. Frame rate                     : 31.250 FPS (1536 SPF)
    54. Compression mode               : Lossy
    55. Stream size                    : 100 MiB (4%)
    56. Title                          : German
    57. Language                       : German
    58. Service kind                   : Complete Main
    59. Default                        : Yes
    60. Forced                         : No

    61. Audio #2
    62. ID                             : 3
    63. Format                         : AAC LC SBR
    64. Format/Info                    : Advanced Audio Codec Low Complexity with Spectral Band Replication
    65. Commercial name                : HE-AAC
    66. Format settings                : Explicit
    67. Codec ID                       : A_AAC-2
    68. Duration                       : 21 min 55 s
    69. Bit rate                       : 128 kb/s
    70. Channel(s)                     : 2 channels
    71. Channel layout                 : L R
    72. Sampling rate                  : 48.0 kHz
    73. Frame rate                     : 23.438 FPS (2048 SPF)
    74. Compression mode               : Lossy
    75. Stream size                    : 20.1 MiB (1%)
    76. Title                          : German
    77. Language                       : German
    78. Default                        : No
    79. Forced                         : No

    80. Audio #3
    81. ID                             : 4
    82. Format                         : E-AC-3
    83. Format/Info                    : Enhanced AC-3
    84. Commercial name                : Dolby Digital Plus
    85. Codec ID                       : A_EAC3
    86. Duration                       : 21 min 55 s
    87. Bit rate mode                  : Constant
    88. Bit rate                       : 640 kb/s
    89. Channel(s)                     : 6 channels
    90. Channel layout                 : L R C LFE Ls Rs
    91. Sampling rate                  : 48.0 kHz
    92. Frame rate                     : 31.250 FPS (1536 SPF)
    93. Compression mode               : Lossy
    94. Stream size                    : 100 MiB (4%)
    95. Title                          : English [Original]
    96. Language                       : English
    97. Service kind                   : Complete Main
    98. Default                        : No
    99. Forced                         : No

    100. Audio #4
    101. ID                             : 5
    102. Format                         : AAC LC SBR
    103. Format/Info                    : Advanced Audio Codec Low Complexity with Spectral Band Replication
    104. Commercial name                : HE-AAC
    105. Format settings                : Explicit
    106. Codec ID                       : A_AAC-2
    107. Duration                       : 21 min 55 s
    108. Bit rate                       : 128 kb/s
    109. Channel(s)                     : 2 channels
    110. Channel layout                 : L R
    111. Sampling rate                  : 48.0 kHz
    112. Frame rate                     : 23.438 FPS (2048 SPF)
    113. Compression mode               : Lossy
    114. Stream size                    : 20.1 MiB (1%)
    115. Title                          : English [Original]
    116. Language                       : English
    117. Default                        : No
    118. Forced                         : No

    119. Audio #5
    120. ID                             : 6
    121. Format                         : E-AC-3
    122. Format/Info                    : Enhanced AC-3
    123. Commercial name                : Dolby Digital Plus
    124. Codec ID                       : A_EAC3
    125. Duration                       : 21 min 55 s
    126. Bit rate mode                  : Constant
    127. Bit rate                       : 640 kb/s
    128. Channel(s)                     : 6 channels
    129. Channel layout                 : L R C LFE Ls Rs
    130. Sampling rate                  : 48.0 kHz
    131. Frame rate                     : 31.250 FPS (1536 SPF)
    132. Compression mode               : Lossy
    133. Stream size                    : 100 MiB (4%)
    134. Title                          : English - Audio Description
    135. Language                       : English
    136. Service kind                   : Complete Main
    137. Default                        : No
    138. Forced                         : No

    139. Audio #6
    140. ID                             : 7
    141. Format                         : AAC LC SBR
    142. Format/Info                    : Advanced Audio Codec Low Complexity with Spectral Band Replication
    143. Commercial name                : HE-AAC
    144. Format settings                : Explicit
    145. Codec ID                       : A_AAC-2
    146. Duration                       : 21 min 55 s
    147. Bit rate                       : 128 kb/s
    148. Channel(s)                     : 2 channels
    149. Channel layout                 : L R
    150. Sampling rate                  : 48.0 kHz
    151. Frame rate                     : 23.438 FPS (2048 SPF)
    152. Compression mode               : Lossy
    153. Stream size                    : 20.1 MiB (1%)
    154. Title                          : English - Audio Description
    155. Language                       : English
    156. Default                        : No
    157. Forced                         : No

    158. Audio #7
    159. ID                             : 8
    160. Format                         : E-AC-3
    161. Format/Info                    : Enhanced AC-3
    162. Commercial name                : Dolby Digital Plus
    163. Codec ID                       : A_EAC3
    164. Duration                       : 21 min 55 s
    165. Bit rate mode                  : Constant
    166. Bit rate                       : 640 kb/s
    167. Channel(s)                     : 6 channels
    168. Channel layout                 : L R C LFE Ls Rs
    169. Sampling rate                  : 48.0 kHz
    170. Frame rate                     : 31.250 FPS (1536 SPF)
    171. Compression mode               : Lossy
    172. Stream size                    : 100 MiB (4%)
    173. Title                          : Spanish
    174. Language                       : Spanish
    175. Service kind                   : Complete Main
    176. Default                        : No
    177. Forced                         : No

    178. Audio #8
    179. ID                             : 9
    180. Format                         : AAC LC SBR
    181. Format/Info                    : Advanced Audio Codec Low Complexity with Spectral Band Replication
    182. Commercial name                : HE-AAC
    183. Format settings                : Explicit
    184. Codec ID                       : A_AAC-2
    185. Duration                       : 21 min 55 s
    186. Bit rate                       : 128 kb/s
    187. Channel(s)                     : 2 channels
    188. Channel layout                 : L R
    189. Sampling rate                  : 48.0 kHz
    190. Frame rate                     : 23.438 FPS (2048 SPF)
    191. Compression mode               : Lossy
    192. Stream size                    : 20.1 MiB (1%)
    193. Title                          : Spanish
    194. Language                       : Spanish
    195. Default                        : No
    196. Forced                         : No

    197. Audio #9
    198. ID                             : 10
    199. Format                         : E-AC-3
    200. Format/Info                    : Enhanced AC-3
    201. Commercial name                : Dolby Digital Plus
    202. Codec ID                       : A_EAC3
    203. Duration                       : 21 min 55 s
    204. Bit rate mode                  : Constant
    205. Bit rate                       : 640 kb/s
    206. Channel(s)                     : 6 channels
    207. Channel layout                 : L R C LFE Ls Rs
    208. Sampling rate                  : 48.0 kHz
    209. Frame rate                     : 31.250 FPS (1536 SPF)
    210. Compression mode               : Lossy
    211. Stream size                    : 100 MiB (4%)
    212. Title                          : European Spanish
    213. Language                       : Spanish
    214. Service kind                   : Complete Main
    215. Default                        : No
    216. Forced                         : No

    217. Audio #10
    218. ID                             : 11
    219. Format                         : AAC LC SBR
    220. Format/Info                    : Advanced Audio Codec Low Complexity with Spectral Band Replication
    221. Commercial name                : HE-AAC
    222. Format settings                : Explicit
    223. Codec ID                       : A_AAC-2
    224. Duration                       : 21 min 55 s
    225. Bit rate                       : 128 kb/s
    226. Channel(s)                     : 2 channels
    227. Channel layout                 : L R
    228. Sampling rate                  : 48.0 kHz
    229. Frame rate                     : 23.438 FPS (2048 SPF)
    230. Compression mode               : Lossy
    231. Stream size                    : 20.1 MiB (1%)
    232. Title                          : European Spanish
    233. Language                       : Spanish
    234. Default                        : No
    235. Forced                         : No

    236. Audio #11
    237. ID                             : 12
    238. Format                         : E-AC-3
    239. Format/Info                    : Enhanced AC-3
    240. Commercial name                : Dolby Digital Plus
    241. Codec ID                       : A_EAC3
    242. Duration                       : 21 min 55 s
    243. Bit rate mode                  : Constant
    244. Bit rate                       : 640 kb/s
    245. Channel(s)                     : 6 channels
    246. Channel layout                 : L R C LFE Ls Rs
    247. Sampling rate                  : 48.0 kHz
    248. Frame rate                     : 31.250 FPS (1536 SPF)
    249. Compression mode               : Lossy
    250. Stream size                    : 100 MiB (4%)
    251. Title                          : French
    252. Language                       : French
    253. Service kind                   : Complete Main
    254. Default                        : No
    255. Forced                         : No

    256. Audio #12
    257. ID                             : 13
    258. Format                         : AAC LC SBR
    259. Format/Info                    : Advanced Audio Codec Low Complexity with Spectral Band Replication
    260. Commercial name                : HE-AAC
    261. Format settings                : Explicit
    262. Codec ID                       : A_AAC-2
    263. Duration                       : 21 min 55 s
    264. Bit rate                       : 128 kb/s
    265. Channel(s)                     : 2 channels
    266. Channel layout                 : L R
    267. Sampling rate                  : 48.0 kHz
    268. Frame rate                     : 23.438 FPS (2048 SPF)
    269. Compression mode               : Lossy
    270. Stream size                    : 20.1 MiB (1%)
    271. Title                          : French
    272. Language                       : French
    273. Default                        : No
    274. Forced                         : No

    275. Audio #13
    276. ID                             : 14
    277. Format                         : E-AC-3
    278. Format/Info                    : Enhanced AC-3
    279. Commercial name                : Dolby Digital Plus
    280. Codec ID                       : A_EAC3
    281. Duration                       : 21 min 55 s
    282. Bit rate mode                  : Constant
    283. Bit rate                       : 640 kb/s
    284. Channel(s)                     : 6 channels
    285. Channel layout                 : L R C LFE Ls Rs
    286. Sampling rate                  : 48.0 kHz
    287. Frame rate                     : 31.250 FPS (1536 SPF)
    288. Compression mode               : Lossy
    289. Stream size                    : 100 MiB (4%)
    290. Title                          : Italian
    291. Language                       : Italian
    292. Service kind                   : Complete Main
    293. Default                        : No
    294. Forced                         : No

    295. Audio #14
    296. ID                             : 15
    297. Format                         : AAC LC SBR
    298. Format/Info                    : Advanced Audio Codec Low Complexity with Spectral Band Replication
    299. Commercial name                : HE-AAC
    300. Format settings                : Explicit
    301. Codec ID                       : A_AAC-2
    302. Duration                       : 21 min 55 s
    303. Bit rate                       : 128 kb/s
    304. Channel(s)                     : 2 channels
    305. Channel layout                 : L R
    306. Sampling rate                  : 48.0 kHz
    307. Frame rate                     : 23.438 FPS (2048 SPF)
    308. Compression mode               : Lossy
    309. Stream size                    : 20.1 MiB (1%)
    310. Title                          : Italian
    311. Language                       : Italian
    312. Default                        : No
    313. Forced                         : No

    314. Audio #15
    315. ID                             : 16
    316. Format                         : E-AC-3
    317. Format/Info                    : Enhanced AC-3
    318. Commercial name                : Dolby Digital Plus
    319. Codec ID                       : A_EAC3
    320. Duration                       : 21 min 55 s
    321. Bit rate mode                  : Constant
    322. Bit rate                       : 640 kb/s
    323. Channel(s)                     : 6 channels
    324. Channel layout                 : L R C LFE Ls Rs
    325. Sampling rate                  : 48.0 kHz
    326. Frame rate                     : 31.250 FPS (1536 SPF)
    327. Compression mode               : Lossy
    328. Stream size                    : 100 MiB (4%)
    329. Title                          : Polish
    330. Language                       : Polish
    331. Service kind                   : Complete Main
    332. Default                        : No
    333. Forced                         : No

    334. Audio #16
    335. ID                             : 17
    336. Format                         : AAC LC SBR
    337. Format/Info                    : Advanced Audio Codec Low Complexity with Spectral Band Replication
    338. Commercial name                : HE-AAC
    339. Format settings                : Explicit
    340. Codec ID                       : A_AAC-2
    341. Duration                       : 21 min 55 s
    342. Bit rate                       : 128 kb/s
    343. Channel(s)                     : 2 channels
    344. Channel layout                 : L R
    345. Sampling rate                  : 48.0 kHz
    346. Frame rate                     : 23.438 FPS (2048 SPF)
    347. Compression mode               : Lossy
    348. Stream size                    : 20.1 MiB (1%)
    349. Title                          : Polish
    350. Language                       : Polish
    351. Default                        : No
    352. Forced                         : No

    353. Audio #17
    354. ID                             : 18
    355. Format                         : E-AC-3
    356. Format/Info                    : Enhanced AC-3
    357. Commercial name                : Dolby Digital Plus
    358. Codec ID                       : A_EAC3
    359. Duration                       : 21 min 55 s
    360. Bit rate mode                  : Constant
    361. Bit rate                       : 640 kb/s
    362. Channel(s)                     : 6 channels
    363. Channel layout                 : L R C LFE Ls Rs
    364. Sampling rate                  : 48.0 kHz
    365. Frame rate                     : 31.250 FPS (1536 SPF)
    366. Compression mode               : Lossy
    367. Stream size                    : 100 MiB (4%)
    368. Title                          : Brazilian Portuguese
    369. Language                       : Portuguese
    370. Service kind                   : Complete Main
    371. Default                        : No
    372. Forced                         : No

    373. Audio #18
    374. ID                             : 19
    375. Format                         : AAC LC SBR
    376. Format/Info                    : Advanced Audio Codec Low Complexity with Spectral Band Replication
    377. Commercial name                : HE-AAC
    378. Format settings                : Explicit
    379. Codec ID                       : A_AAC-2
    380. Duration                       : 21 min 55 s
    381. Bit rate                       : 128 kb/s
    382. Channel(s)                     : 2 channels
    383. Channel layout                 : L R
    384. Sampling rate                  : 48.0 kHz
    385. Frame rate                     : 23.438 FPS (2048 SPF)
    386. Compression mode               : Lossy
    387. Stream size                    : 20.1 MiB (1%)
    388. Title                          : Brazilian Portuguese
    389. Language                       : Portuguese
    390. Default                        : No
    391. Forced                         : No

    392. Audio #19
    393. ID                             : 20
    394. Format                         : AAC LC SBR
    395. Format/Info                    : Advanced Audio Codec Low Complexity with Spectral Band Replication
    396. Commercial name                : HE-AAC
    397. Format settings                : Explicit
    398. Codec ID                       : A_AAC-2
    399. Duration                       : 21 min 55 s
    400. Bit rate                       : 128 kb/s
    401. Channel(s)                     : 2 channels
    402. Channel layout                 : L R
    403. Sampling rate                  : 48.0 kHz
    404. Frame rate                     : 23.438 FPS (2048 SPF)
    405. Compression mode               : Lossy
    406. Stream size                    : 20.1 MiB (1%)
    407. Title                          : Russian
    408. Language                       : Russian
    409. Default                        : No
    410. Forced                         : No

    411. Audio #20
    412. ID                             : 21
    413. Format                         : E-AC-3
    414. Format/Info                    : Enhanced AC-3
    415. Commercial name                : Dolby Digital Plus
    416. Codec ID                       : A_EAC3
    417. Duration                       : 21 min 55 s
    418. Bit rate mode                  : Constant
    419. Bit rate                       : 640 kb/s
    420. Channel(s)                     : 6 channels
    421. Channel layout                 : L R C LFE Ls Rs
    422. Sampling rate                  : 48.0 kHz
    423. Frame rate                     : 31.250 FPS (1536 SPF)
    424. Compression mode               : Lossy
    425. Stream size                    : 100 MiB (4%)
    426. Title                          : Turkish
    427. Language                       : Turkish
    428. Service kind                   : Complete Main
    429. Default                        : No
    430. Forced                         : No

    431. Audio #21
    432. ID                             : 22
    433. Format                         : AAC LC SBR
    434. Format/Info                    : Advanced Audio Codec Low Complexity with Spectral Band Replication
    435. Commercial name                : HE-AAC
    436. Format settings                : Explicit
    437. Codec ID                       : A_AAC-2
    438. Duration                       : 21 min 55 s
    439. Bit rate                       : 128 kb/s
    440. Channel(s)                     : 2 channels
    441. Channel layout                 : L R
    442. Sampling rate                  : 48.0 kHz
    443. Frame rate                     : 23.438 FPS (2048 SPF)
    444. Compression mode               : Lossy
    445. Stream size                    : 20.1 MiB (1%)
    446. Title                          : Turkish
    447. Language                       : Turkish
    448. Default                        : No
    449. Forced                         : No

    450. Text #1
    451. ID                             : 23
    452. Format                         : UTF-8
    453. Codec ID                       : S_TEXT/UTF8
    454. Codec ID/Info                  : UTF-8 Plain Text
    455. Duration                       : 20 min 52 s
    456. Bit rate                       : 161 b/s
    457. Count of elements              : 381
    458. Stream size                    : 24.6 KiB (0%)
    459. Title                          : Arabic
    460. Language                       : Arabic
    461. Default                        : No
    462. Forced                         : No

    463. Text #2
    464. ID                             : 24
    465. Format                         : UTF-8
    466. Codec ID                       : S_TEXT/UTF8
    467. Codec ID/Info                  : UTF-8 Plain Text
    468. Duration                       : 21 min 45 s
    469. Bit rate                       : 100 b/s
    470. Count of elements              : 385
    471. Stream size                    : 16.0 KiB (0%)
    472. Title                          : Czech
    473. Language                       : Czech
    474. Default                        : No
    475. Forced                         : No

    476. Text #3
    477. ID                             : 25
    478. Format                         : UTF-8
    479. Codec ID                       : S_TEXT/UTF8
    480. Codec ID/Info                  : UTF-8 Plain Text
    481. Duration                       : 21 min 45 s
    482. Bit rate                       : 88 b/s
    483. Count of elements              : 385
    484. Stream size                    : 14.1 KiB (0%)
    485. Title                          : Danish
    486. Language                       : Danish
    487. Default                        : No
    488. Forced                         : No

    489. Text #4
    490. ID                             : 26
    491. Format                         : UTF-8
    492. Codec ID                       : S_TEXT/UTF8
    493. Codec ID/Info                  : UTF-8 Plain Text
    494. Duration                       : 21 min 45 s
    495. Bit rate                       : 109 b/s
    496. Count of elements              : 386
    497. Stream size                    : 17.4 KiB (0%)
    498. Title                          : German
    499. Language                       : German
    500. Default                        : No
    501. Forced                         : No

    502. Text #5
    503. ID                             : 27
    504. Format                         : UTF-8
    505. Codec ID                       : S_TEXT/UTF8
    506. Codec ID/Info                  : UTF-8 Plain Text
    507. Duration                       : 20 min 53 s
    508. Bit rate                       : 175 b/s
    509. Count of elements              : 384
    510. Stream size                    : 26.9 KiB (0%)
    511. Title                          : Greek
    512. Language                       : Greek
    513. Default                        : No
    514. Forced                         : No

    515. Text #6
    516. ID                             : 28
    517. Format                         : UTF-8
    518. Codec ID                       : S_TEXT/UTF8
    519. Codec ID/Info                  : UTF-8 Plain Text
    520. Duration                       : 21 min 10 s
    521. Bit rate                       : 103 b/s
    522. Count of elements              : 841
    523. Stream size                    : 16.0 KiB (0%)
    524. Title                          : English
    525. Language                       : English
    526. Default                        : No
    527. Forced                         : No

    528. Text #7
    529. ID                             : 29
    530. Format                         : UTF-8
    531. Codec ID                       : S_TEXT/UTF8
    532. Codec ID/Info                  : UTF-8 Plain Text
    533. Duration                       : 21 min 45 s
    534. Bit rate                       : 92 b/s
    535. Count of elements              : 384
    536. Stream size                    : 14.8 KiB (0%)
    537. Title                          : Spanish
    538. Language                       : Spanish
    539. Default                        : No
    540. Forced                         : No

    541. Text #8
    542. ID                             : 30
    543. Format                         : UTF-8
    544. Codec ID                       : S_TEXT/UTF8
    545. Codec ID/Info                  : UTF-8 Plain Text
    546. Duration                       : 21 min 45 s
    547. Bit rate                       : 98 b/s
    548. Count of elements              : 383
    549. Stream size                    : 15.7 KiB (0%)
    550. Title                          : European Spanish
    551. Language                       : Spanish
    552. Default                        : No
    553. Forced                         : No

    554. Text #9
    555. ID                             : 31
    556. Format                         : UTF-8
    557. Codec ID                       : S_TEXT/UTF8
    558. Codec ID/Info                  : UTF-8 Plain Text
    559. Duration                       : 21 min 45 s
    560. Bit rate                       : 82 b/s
    561. Count of elements              : 324
    562. Stream size                    : 13.2 KiB (0%)
    563. Title                          : Finnish
    564. Language                       : Finnish
    565. Default                        : No
    566. Forced                         : No

    567. Text #10
    568. ID                             : 32
    569. Format                         : UTF-8
    570. Codec ID                       : S_TEXT/UTF8
    571. Codec ID/Info                  : UTF-8 Plain Text
    572. Duration                       : 21 min 45 s
    573. Bit rate                       : 84 b/s
    574. Count of elements              : 377
    575. Stream size                    : 13.4 KiB (0%)
    576. Title                          : French
    577. Language                       : French
    578. Default                        : No
    579. Forced                         : No

    580. Text #11
    581. ID                             : 33
    582. Format                         : UTF-8
    583. Codec ID                       : S_TEXT/UTF8
    584. Codec ID/Info                  : UTF-8 Plain Text
    585. Duration                       : 21 min 45 s
    586. Bit rate                       : 157 b/s
    587. Count of elements              : 411
    588. Stream size                    : 25.0 KiB (0%)
    589. Title                          : Hebrew
    590. Language                       : Hebrew
    591. Default                        : No
    592. Forced                         : No

    593. Text #12
    594. ID                             : 34
    595. Format                         : UTF-8
    596. Codec ID                       : S_TEXT/UTF8
    597. Codec ID/Info                  : UTF-8 Plain Text
    598. Duration                       : 20 min 53 s
    599. Bit rate                       : 268 b/s
    600. Count of elements              : 418
    601. Stream size                    : 41.0 KiB (0%)
    602. Title                          : Hindi
    603. Language                       : Hindi
    604. Default                        : No
    605. Forced                         : No

    606. Text #13
    607. ID                             : 35
    608. Format                         : UTF-8
    609. Codec ID                       : S_TEXT/UTF8
    610. Codec ID/Info                  : UTF-8 Plain Text
    611. Duration                       : 21 min 45 s
    612. Bit rate                       : 102 b/s
    613. Count of elements              : 385
    614. Stream size                    : 16.4 KiB (0%)
    615. Title                          : Hungarian
    616. Language                       : Hungarian
    617. Default                        : No
    618. Forced                         : No

    619. Text #14
    620. ID                             : 36
    621. Format                         : UTF-8
    622. Codec ID                       : S_TEXT/UTF8
    623. Codec ID/Info                  : UTF-8 Plain Text
    624. Duration                       : 20 min 53 s
    625. Bit rate                       : 90 b/s
    626. Count of elements              : 343
    627. Stream size                    : 13.9 KiB (0%)
    628. Title                          : Indonesian
    629. Language                       : Indonesian
    630. Default                        : No
    631. Forced                         : No

    632. Text #15
    633. ID                             : 37
    634. Format                         : UTF-8
    635. Codec ID                       : S_TEXT/UTF8
    636. Codec ID/Info                  : UTF-8 Plain Text
    637. Duration                       : 20 min 53 s
    638. Bit rate                       : 115 b/s
    639. Count of elements              : 383
    640. Stream size                    : 17.6 KiB (0%)
    641. Title                          : Italian
    642. Language                       : Italian
    643. Default                        : No
    644. Forced                         : No

    645. Text #16
    646. ID                             : 38
    647. Format                         : UTF-8
    648. Codec ID                       : S_TEXT/UTF8
    649. Codec ID/Info                  : UTF-8 Plain Text
    650. Duration                       : 21 min 31 s
    651. Bit rate                       : 79 b/s
    652. Count of elements              : 394
    653. Stream size                    : 12.5 KiB (0%)
    654. Title                          : Japanese
    655. Language                       : Japanese
    656. Default                        : No
    657. Forced                         : No

    658. Text #17
    659. ID                             : 39
    660. Format                         : UTF-8
    661. Codec ID                       : S_TEXT/UTF8
    662. Codec ID/Info                  : UTF-8 Plain Text
    663. Duration                       : 20 min 52 s
    664. Bit rate                       : 114 b/s
    665. Count of elements              : 407
    666. Stream size                    : 17.5 KiB (0%)
    667. Title                          : Korean
    668. Language                       : Korean
    669. Default                        : No
    670. Forced                         : No

    671. Text #18
    672. ID                             : 40
    673. Format                         : UTF-8
    674. Codec ID                       : S_TEXT/UTF8
    675. Codec ID/Info                  : UTF-8 Plain Text
    676. Duration                       : 21 min 45 s
    677. Bit rate                       : 105 b/s
    678. Count of elements              : 386
    679. Stream size                    : 16.9 KiB (0%)
    680. Title                          : Malay
    681. Language                       : Malay
    682. Default                        : No
    683. Forced                         : No

    684. Text #19
    685. ID                             : 41
    686. Format                         : UTF-8
    687. Codec ID                       : S_TEXT/UTF8
    688. Codec ID/Info                  : UTF-8 Plain Text
    689. Duration                       : 20 min 53 s
    690. Bit rate                       : 100 b/s
    691. Count of elements              : 378
    692. Stream size                    : 15.3 KiB (0%)
    693. Title                          : Norwegian
    694. Language                       : Norwegian Bokmal
    695. Default                        : No
    696. Forced                         : No

    697. Text #20
    698. ID                             : 42
    699. Format                         : UTF-8
    700. Codec ID                       : S_TEXT/UTF8
    701. Codec ID/Info                  : UTF-8 Plain Text
    702. Duration                       : 21 min 44 s
    703. Bit rate                       : 85 b/s
    704. Count of elements              : 318
    705. Stream size                    : 13.6 KiB (0%)
    706. Title                          : Dutch
    707. Language                       : Dutch
    708. Default                        : No
    709. Forced                         : No

    710. Text #21
    711. ID                             : 43
    712. Format                         : UTF-8
    713. Codec ID                       : S_TEXT/UTF8
    714. Codec ID/Info                  : UTF-8 Plain Text
    715. Duration                       : 21 min 45 s
    716. Bit rate                       : 85 b/s
    717. Count of elements              : 360
    718. Stream size                    : 13.6 KiB (0%)
    719. Title                          : Polish
    720. Language                       : Polish
    721. Default                        : No
    722. Forced                         : No

    723. Text #22
    724. ID                             : 44
    725. Format                         : UTF-8
    726. Codec ID                       : S_TEXT/UTF8
    727. Codec ID/Info                  : UTF-8 Plain Text
    728. Duration                       : 21 min 45 s
    729. Bit rate                       : 96 b/s
    730. Count of elements              : 386
    731. Stream size                    : 15.4 KiB (0%)
    732. Title                          : Portuguese
    733. Language                       : Portuguese
    734. Default                        : No
    735. Forced                         : No

    736. Text #23
    737. ID                             : 45
    738. Format                         : UTF-8
    739. Codec ID                       : S_TEXT/UTF8
    740. Codec ID/Info                  : UTF-8 Plain Text
    741. Duration                       : 21 min 45 s
    742. Bit rate                       : 98 b/s
    743. Count of elements              : 386
    744. Stream size                    : 15.8 KiB (0%)
    745. Title                          : Brazilian Portuguese
    746. Language                       : Portuguese
    747. Default                        : No
    748. Forced                         : No

    749. Text #24
    750. ID                             : 46
    751. Format                         : UTF-8
    752. Codec ID                       : S_TEXT/UTF8
    753. Codec ID/Info                  : UTF-8 Plain Text
    754. Duration                       : 21 min 45 s
    755. Bit rate                       : 98 b/s
    756. Count of elements              : 386
    757. Stream size                    : 15.7 KiB (0%)
    758. Title                          : Romanian
    759. Language                       : Romanian
    760. Default                        : No
    761. Forced                         : No

    762. Text #25
    763. ID                             : 47
    764. Format                         : UTF-8
    765. Codec ID                       : S_TEXT/UTF8
    766. Codec ID/Info                  : UTF-8 Plain Text
    767. Duration                       : 20 min 53 s
    768. Bit rate                       : 177 b/s
    769. Count of elements              : 391
    770. Stream size                    : 27.1 KiB (0%)
    771. Title                          : Russian
    772. Language                       : Russian
    773. Default                        : No
    774. Forced                         : No

    775. Text #26
    776. ID                             : 48
    777. Format                         : UTF-8
    778. Codec ID                       : S_TEXT/UTF8
    779. Codec ID/Info                  : UTF-8 Plain Text
    780. Duration                       : 21 min 45 s
    781. Bit rate                       : 101 b/s
    782. Count of elements              : 383
    783. Stream size                    : 16.1 KiB (0%)
    784. Title                          : Swedish
    785. Language                       : Swedish
    786. Default                        : No
    787. Forced                         : No

    788. Text #27
    789. ID                             : 49
    790. Format                         : UTF-8
    791. Codec ID                       : S_TEXT/UTF8
    792. Codec ID/Info                  : UTF-8 Plain Text
    793. Duration                       : 21 min 45 s
    794. Bit rate                       : 233 b/s
    795. Count of elements              : 389
    796. Stream size                    : 37.2 KiB (0%)
    797. Title                          : Thai
    798. Language                       : Thai
    799. Default                        : No
    800. Forced                         : No

    801. Text #28
    802. ID                             : 50
    803. Format                         : UTF-8
    804. Codec ID                       : S_TEXT/UTF8
    805. Codec ID/Info                  : UTF-8 Plain Text
    806. Duration                       : 21 min 45 s
    807. Bit rate                       : 96 b/s
    808. Count of elements              : 384
    809. Stream size                    : 15.3 KiB (0%)
    810. Title                          : Turkish
    811. Language                       : Turkish
    812. Default                        : No
    813. Forced                         : No

    814. Text #29
    815. ID                             : 51
    816. Format                         : UTF-8
    817. Codec ID                       : S_TEXT/UTF8
    818. Codec ID/Info                  : UTF-8 Plain Text
    819. Duration                       : 21 min 45 s
    820. Bit rate                       : 143 b/s
    821. Count of elements              : 385
    822. Stream size                    : 22.9 KiB (0%)
    823. Title                          : Ukrainian
    824. Language                       : Ukrainian
    825. Default                        : No
    826. Forced                         : No

    827. Text #30
    828. ID                             : 52
    829. Format                         : UTF-8
    830. Codec ID                       : S_TEXT/UTF8
    831. Codec ID/Info                  : UTF-8 Plain Text
    832. Duration                       : 21 min 45 s
    833. Bit rate                       : 124 b/s
    834. Count of elements              : 385
    835. Stream size                    : 19.8 KiB (0%)
    836. Title                          : Vietnamese
    837. Language                       : Vietnamese
    838. Default                        : No
    839. Forced                         : No

    840. Text #31
    841. ID                             : 53
    842. Format                         : UTF-8
    843. Codec ID                       : S_TEXT/UTF8
    844. Codec ID/Info                  : UTF-8 Plain Text
    845. Duration                       : 20 min 52 s
    846. Bit rate                       : 100 b/s
    847. Count of elements              : 500
    848. Stream size                    : 15.3 KiB (0%)
    849. Title                          : Simplified Chinese
    850. Language                       : Chinese
    851. Default                        : No
    852. Forced                         : No

    853. Text #32
    854. ID                             : 54
    855. Format                         : UTF-8
    856. Codec ID                       : S_TEXT/UTF8
    857. Codec ID/Info                  : UTF-8 Plain Text
    858. Duration                       : 20 min 52 s
    859. Bit rate                       : 99 b/s
    860. Count of elements              : 503
    861. Stream size                    : 15.2 KiB (0%)
    862. Title                          : Traditional Chinese
    863. Language                       : Chinese
    864. Default                        : No
    865. Forced                         : No

    复制代码







    购买主题 已有 10 人购买  本主题需向作者支付 150 大洋 才能浏览
    回复

    使用道具 举报

  • TA的每日心情

    4 天前
  • 签到天数: 61 天

    [LV.6]常住居民II

    0

    主题

    298

    帖子

    138

    积分

    中级影迷

    Rank: 3Rank: 3

    积分
    138
    发表于 2020-8-17 15:20:31 | 显示全部楼层
    很好 支持了~
    回复

    使用道具 举报

  • TA的每日心情
    开心
    昨天 21:32
  • 签到天数: 160 天

    [LV.7]常住居民III

    2

    主题

    1607

    帖子

    410

    积分

    超级影迷

    Rank: 6Rank: 6

    积分
    410
    发表于 2020-8-17 15:49:29 | 显示全部楼层
    感谢分享。
    回复

    使用道具 举报

  • TA的每日心情
    慵懒
    4 天前
  • 签到天数: 96 天

    [LV.6]常住居民II

    37

    主题

    1515

    帖子

    125

    积分

    中级影迷

    Rank: 3Rank: 3

    积分
    125
    发表于 2020-8-17 19:02:52 | 显示全部楼层
    必须支持了
    回复

    使用道具 举报

  • TA的每日心情
    开心
    昨天 16:17
  • 签到天数: 357 天

    [LV.8]以坛为家I

    11

    主题

    688

    帖子

    94

    积分

    中级影迷

    Rank: 3Rank: 3

    积分
    94
    发表于 2020-8-17 20:55:35 | 显示全部楼层
    谢谢楼主分享,太棒了!
    回复

    使用道具 举报

  • TA的每日心情
    开心
    2020-10-1 06:44
  • 签到天数: 8 天

    [LV.3]偶尔看看II

    0

    主题

    478

    帖子

    83

    积分

    中级影迷

    Rank: 3Rank: 3

    积分
    83
    发表于 2020-8-17 21:03:33 | 显示全部楼层
    期待有人补上115链接
    回复

    使用道具 举报

  • TA的每日心情

    4 天前
  • 签到天数: 51 天

    [LV.5]常住居民I

    2

    主题

    507

    帖子

    29

    积分

    初级影迷

    Rank: 2

    积分
    29
    发表于 2020-8-17 21:53:27 | 显示全部楼层
    不错的片子。谢谢发布啊啊
    回复

    使用道具 举报

  • TA的每日心情
    开心
    昨天 09:01
  • 签到天数: 31 天

    [LV.5]常住居民I

    0

    主题

    207

    帖子

    34

    积分

    初级影迷

    Rank: 2

    积分
    34
    发表于 2020-8-20 09:15:57 | 显示全部楼层
    谢谢楼主分享!
    回复

    使用道具 举报

  • TA的每日心情
    奋斗
    1 小时前
  • 签到天数: 70 天

    [LV.6]常住居民II

    18

    主题

    1221

    帖子

    151

    积分

    高级影迷

    Rank: 4

    积分
    151

    小土豪勋章十二生肖之蛇双鱼座勋章土豪勋章

    发表于 2020-8-21 08:59:37 | 显示全部楼层
    感谢分享。
    回复

    使用道具 举报

  • TA的每日心情
    开心
    昨天 11:11
  • 签到天数: 180 天

    [LV.7]常住居民III

    1

    主题

    456

    帖子

    38

    积分

    初级影迷

    Rank: 2

    积分
    38
    发表于 2020-8-27 14:11:48 | 显示全部楼层
    系列全集 果断收藏啊
    回复

    使用道具 举报

    您需要登录后才可以回帖 登录 | 立即注册

    本版积分规则

    QQ|Archiver|手机版|小黑屋|影迷乐园

    GMT+8, 2020-10-28 02:33 , Processed in 0.107873 second(s), 29 queries .

    Powered by Discuz! X3.4

    Copyright © 2001-2020, Tencent Cloud.

    快速回复 返回顶部 返回列表