请选择 进入手机版 | 继续访问电脑版

YMLY-影迷乐园-特效字幕 蓝光原盘 1080P 高清动漫电影电视剧

 找回密码
 立即注册
搜索
查看: 105|回复: 9

[日本] [115][2019][1080P][放射治疗室][日语.繁中字幕][洼田正孝.本田翼][11集全][MKV][13.4GB][Radiation.House.S01.1080p.KKTV.WEB-DL.AAC2.0.H264-Ao]

[复制链接]
  • TA的每日心情
    奋斗
    2020-2-21 00:36
  • 签到天数: 656 天

    [LV.9]以坛为家II

    7499

    主题

    9379

    帖子

    5万

    积分

    超级版主

    与齐同行,是最初的梦想,也是一辈子的执着~

    Rank: 16Rank: 16Rank: 16Rank: 16

    积分
    55453

    内测勋章最佳新人十二生肖之猴VIP包月勋章影迷男神小土豪勋章土豪勋章富甲一方精华勋章金话筒主题达人灌水之王

    发表于 2020-9-15 02:52:56 | 显示全部楼层 |阅读模式
    下载说明:

    近期百度云和谐的厉害,本剧将采用115网盘的方式分享,只能115网盘会员接收并下载,购买前请看清楚!


    ----转载自OurBits,感谢压制和原发布人员,特此鸣谢!----



    ◎译  名 放射治疗室 / Radiation House / X光室的奇迹 / 放射科的诊断报告
    ◎片  名 ラジエーションハウス~放射線科の診断レポート~
    ◎年  代 2019
    ◎产  地 日本
    ◎类  别 剧情
    ◎语  言 日语
    ◎上映日期 2019-04-08(日本)
    ◎IMDb评分  7.6/10 from 26 users
    ◎IMDb链接  https://www.imdb.com/title/tt9788526
    ◎豆瓣评分 6.8/10 from 2825 users
    ◎豆瓣链接 https://movie.douban.com/subject/30395451/
    ◎集  数 10
    ◎片  长 70分钟
    ◎导  演 铃木雅之 Masayuki Suzuki / 金井纮 Hiro Kanai
    ◎编  剧 大北遥 Haruka Okita
    ◎主  演 洼田正孝 Masataka Kubota
           本田翼 Tsubasa Honda
           广濑爱丽丝 Alice Hirose
           远藤宪一 Ken'ichi Endô
           山口纱弥加 Sayaka Yamaguchi
           浅野和之 Kazuyuki Asano
           和久井映见 Emi Wakui
           浜野谦太 Kenta Hamano
           丸山智己 Tomomi Maruyama
           矢野圣人 Masato Yano


    ◎标  签 医疗 | 日本 | 漥田正孝 | 2019 | 看过的电视剧 | 电视剧 | 日语标签 | 2019春季档日剧

    ◎简  介  

      该剧讲述了洼田正孝饰演的主人公,是坚信X光一定会拍摄出真实病症的诊疗放射线技师,回国后就任于本田翼所工作的甘春综合医院,广濑爱丽丝在剧中饰演十分有活力的新人放射线技师,她一心为患者着想,但经常因为做事不灵巧而白忙活一场。
    1. General
    2. Unique ID                      : 111171558535425809297822900793861997646 (0x53A2DD04D1404B0B805436A1DB2C044E)
    3. Format                         : Matroska
    4. Format version                 : Version 4 / Version 2
    5. File size                      : 1.04 GiB
    6. Duration                       : 46 min 5 s
    7. Overall bit rate               : 3 222 kb/s
    8. Encoded date                   : UTC 2019-05-14 06:32:23
    9. Writing application            : mkvmerge v32.0.0 ('Astral Progressions') 64-bit
    10. Writing library                : libebml v1.3.7 + libmatroska v1.5.0

    11. Video
    12. ID                             : 1
    13. Format                         : AVC
    14. Format/Info                    : Advanced Video Codec
    15. Format profile                 : High@L4.1
    16. Format settings                : CABAC / 5 Ref Frames
    17. Format settings, CABAC         : Yes
    18. Format settings, ReFrames      : 5 frames
    19. Format settings, GOP           : M=4, N=30
    20. Codec ID                       : V_MPEG4/ISO/AVC
    21. Duration                       : 46 min 5 s
    22. Bit rate                       : 3 000 kb/s
    23. Width                          : 1 920 pixels
    24. Height                         : 1 080 pixels
    25. Display aspect ratio           : 16:9
    26. Frame rate mode                : Constant
    27. Frame rate                     : 29.970 (30000/1001) FPS
    28. Color space                    : YUV
    29. Chroma subsampling             : 4:2:0
    30. Bit depth                      : 8 bits
    31. Scan type                      : Progressive
    32. Bits/(Pixel*Frame)             : 0.048
    33. Stream size                    : 998 MiB (94%)
    34. Writing library                : x264 core 142
    35. Encoding settings              : cabac=1 / ref=5 / deblock=1:0:0 / analyse=0x3:0x113 / me=umh / subme=9 / psy=1 / psy_rd=1.00:0.00 / mixed_ref=1 / me_range=32 / chroma_me=1 / trellis=1 / 8x8dct=1 / cqm=0 / deadzone=21,11 / fast_pskip=1 / chroma_qp_offset=-2 / threads=12 / lookahead_threads=1 / sliced_threads=0 / nr=0 / decimate=1 / interlaced=0 / bluray_compat=0 / stitchable=1 / constrained_intra=0 / bframes=3 / b_pyramid=2 / b_adapt=1 / b_bias=0 / direct=3 / weightb=1 / open_gop=0 / weightp=2 / keyint=30 / keyint_min=3 / scenecut=0 / intra_refresh=0 / rc_lookahead=40 / rc=abr / mbtree=1 / bitrate=3000 / ratetol=1.0 / qcomp=0.60 / qpmin=0 / qpmax=69 / qpstep=4 / vbv_maxrate=4500 / vbv_bufsize=6750 / nal_hrd=none / filler=0 / ip_ratio=1.40 / aq=1:1.00
    36. Language                       : English
    37. Default                        : Yes
    38. Forced                         : No

    39. Audio
    40. ID                             : 2
    41. Format                         : AAC
    42. Format/Info                    : Advanced Audio Codec
    43. Format profile                 : LC
    44. Codec ID                       : A_AAC-2
    45. Duration                       : 46 min 5 s
    46. Bit rate                       : 192 kb/s
    47. Channel(s)                     : 2 channels
    48. Channel positions              : Front: L R
    49. Sampling rate                  : 44.1 kHz
    50. Frame rate                     : 43.066 FPS (1024 SPF)
    51. Compression mode               : Lossy
    52. Stream size                    : 63.3 MiB (6%)
    53. Language                       : English
    54. Default                        : No
    55. Forced                         : No

    56. Text
    57. ID                             : 3
    58. Format                         : UTF-8
    59. Codec ID                       : S_TEXT/UTF8
    60. Codec ID/Info                  : UTF-8 Plain Text
    61. Duration                       : 46 min 1 s
    62. Bit rate                       : 57 b/s
    63. Count of elements              : 711
    64. Stream size                    : 19.4 KiB (0%)
    65. Language                       : Chinese
    66. Default                        : Yes
    67. Forced                         : No
    复制代码




    购买主题 已有 2 人购买  本主题需向作者支付 20 大洋 才能浏览
    郑重声明:
    本人提供的所有影视作品均是在网上搜集,任何涉及商业盈利目的均不得使用,否则产生的一切后果将由您自己承担!
    本人不对本人所发布的任何内容负任何法律责任!该下载内容仅做宽带测试使用,请在下载后24小时内删除。请购买正版!
    本人列出的文件没有保存在本站的服务器上,本人仅负责连接,本人对被传播文件的内容一无所知。
    如侵犯视频原作者或发行商版权,请联系本人删除!
    回复

    使用道具 举报

  • TA的每日心情
    奋斗
    昨天 13:04
  • 签到天数: 144 天

    [LV.7]常住居民III

    5

    主题

    532

    帖子

    37

    积分

    初级影迷

    Rank: 2

    积分
    37
    发表于 2020-9-15 06:36:59 | 显示全部楼层
    感谢分享····
    回复

    使用道具 举报

  • TA的每日心情
    开心
    昨天 13:21
  • 签到天数: 60 天

    [LV.6]常住居民II

    1

    主题

    647

    帖子

    114

    积分

    中级影迷

    Rank: 3Rank: 3

    积分
    114
    发表于 2020-9-15 07:51:29 | 显示全部楼层
    感谢分享!
    回复

    使用道具 举报

  • TA的每日心情
    开心
    1 小时前
  • 签到天数: 41 天

    [LV.5]常住居民I

    1

    主题

    312

    帖子

    111

    积分

    中级影迷

    Rank: 3Rank: 3

    积分
    111
    发表于 2020-9-15 08:39:13 | 显示全部楼层
    感谢分享!
    回复

    使用道具 举报

  • TA的每日心情
    开心
    4 天前
  • 签到天数: 76 天

    [LV.6]常住居民II

    3

    主题

    760

    帖子

    220

    积分

    高级影迷

    Rank: 4

    积分
    220
    发表于 2020-9-15 09:33:03 | 显示全部楼层
    小翅膀真的美
    回复

    使用道具 举报

  • TA的每日心情
    奋斗
    昨天 14:58
  • 签到天数: 65 天

    [LV.6]常住居民II

    4

    主题

    800

    帖子

    69

    积分

    初级影迷

    Rank: 2

    积分
    69
    发表于 2020-9-15 10:38:58 | 显示全部楼层
    感谢分享。
    回复

    使用道具 举报

  • TA的每日心情
    无聊
    昨天 16:45
  • 签到天数: 31 天

    [LV.5]常住居民I

    0

    主题

    49

    帖子

    33

    积分

    初级影迷

    Rank: 2

    积分
    33
    发表于 2020-9-15 14:14:28 | 显示全部楼层
    洼田正孝的剧都喜欢看
    回复

    使用道具 举报

  • TA的每日心情
    开心
    昨天 19:06
  • 签到天数: 149 天

    [LV.7]常住居民III

    2

    主题

    1546

    帖子

    372

    积分

    超级影迷

    Rank: 6Rank: 6

    积分
    372
    发表于 2020-9-15 20:34:38 | 显示全部楼层
    感谢分享。
    回复

    使用道具 举报

  • TA的每日心情

    昨天 07:30
  • 签到天数: 514 天

    [LV.9]以坛为家II

    38

    主题

    5856

    帖子

    752

    积分

    专业影迷

    Rank: 8Rank: 8

    积分
    752
    发表于 2020-9-16 07:30:42 | 显示全部楼层
    社区资源真心不错。
    回复

    使用道具 举报

  • TA的每日心情
    开心
    昨天 07:00
  • 签到天数: 104 天

    [LV.6]常住居民II

    0

    主题

    251

    帖子

    15

    积分

    入门影迷

    Rank: 1

    积分
    15
    发表于 2020-9-19 13:30:55 | 显示全部楼层

    感谢分享。
    回复

    使用道具 举报

    您需要登录后才可以回帖 登录 | 立即注册

    本版积分规则

    QQ|Archiver|手机版|小黑屋|影迷乐园

    GMT+8, 2020-9-30 04:34 , Processed in 0.120501 second(s), 28 queries .

    Powered by Discuz! X3.4

    Copyright © 2001-2020, Tencent Cloud.

    快速回复 返回顶部 返回列表