请选择 进入手机版 | 继续访问电脑版

YMLY-影迷乐园-特效字幕 蓝光原盘 1080P 高清动漫电影电视剧

 找回密码
 立即注册
搜索
查看: 123|回复: 8

[日本] [115][2019][1080P][恶毒女儿·圣洁母亲][日语.繁中字幕][寺岛忍.足立梨花][6集全][MKV][6.92GB][Poisonous.Daughter.Holy.Mother.S01.1080p.KKTV.WEB-DL.AAC2.0.H264-Ao]

[复制链接]
  • TA的每日心情
    奋斗
    2020-2-21 00:36
  • 签到天数: 656 天

    [LV.9]以坛为家II

    7499

    主题

    9379

    帖子

    5万

    积分

    超级版主

    与齐同行,是最初的梦想,也是一辈子的执着~

    Rank: 16Rank: 16Rank: 16Rank: 16

    积分
    55453

    内测勋章最佳新人十二生肖之猴VIP包月勋章影迷男神小土豪勋章土豪勋章富甲一方精华勋章金话筒主题达人灌水之王

    发表于 2020-9-15 03:07:31 | 显示全部楼层 |阅读模式
    下载说明:

    近期百度云和谐的厉害,本剧将采用115网盘的方式分享,只能115网盘会员接收并下载,购买前请看清楚!


    ----转载自OurBits,感谢压制和原发布人员,特此鸣谢!----



    ◎译  名 恶毒女儿·圣洁母亲 / Poisonous Daughter, Holy Mother / 恶女圣母 / 母女之间
    ◎年  代 2019
    ◎产  地 日本
    ◎类  别 剧情 / 家庭
    ◎语  言 日语
    ◎上映日期 2019-07-06(日本)
    ◎IMDb链接  https://www.imdb.com/title/tt9830932
    ◎豆瓣评分 7.2/10 from 1158 users
    ◎豆瓣链接 https://movie.douban.com/subject/30299193/
    ◎集  数 6
    ◎片  长 54分钟
    ◎导  演 吉田康弘 Yasuhiro Yoshida / 泷本宪吾
    ◎编  剧 清水友佳子 Yukako Shimizu / 吉川菜美 Nami Yoshikawa
    ◎主  演 寺岛忍 Shinobu Terajima
           足立梨花 Rika Adachi
           清原果耶 Kaya Kiyohara
           高桥优斗 Yuto Takahashi
           中村友理 Yuri Nakamura
           仓科加奈 Kana Kurashina
           伊藤步 Ayumi Ito
           山下莉绪 Rio Yamashita
           落合扶树 Motoki Ochiai
           山田杏奈 Anna Yamada
           村田秀亮 Hideaki Murata
           片冈礼子 Reiko Kataoka
           渡边真起子 Makiko Watanabe
           宫崎美子 Yoshiko Miyazaki
           黑田大辅 Daisuke Kuroda
           村井美树 Miki Murai
           松岛庄汰 Matsushima Shota
           水崎绫女 Ayame Misaki
           秋月三佳 Mika Akizuki
           峰村理惠 Rie Minemura
           坂井真纪 Maki Sakai
           山田真步 Maho Yamada
           尾上宽之 Hiroyuki Onoue


    ◎标  签 日本 | 看过的电视剧 | WOWOW | 日语标签 | 2019 | 家庭 | 女性 | 人性

    ◎简  介  

      【惡毒女兒】
      從小,我的母親就對我有許多「期待」。她要求我閱讀文學經典,督促我成為國文老師,禁止我跟她不喜歡的同學交朋友。她的期待總是讓我沒來由地頭痛,沒有完成她的期待,我就會下意識地向她道歉,而她會把這視為我的妥協、她的勝利。據說社會上有許多支配兒女的父母,尤其以支配女兒的母親居多,她們被稱為「毒母」。
      是的,我的母親就是「毒母」。
      【聖潔母親】
      父母不能叫小孩子看書嗎?不能要求兒女去工作嗎?不能向兒女建議,以後可以從事某個職業嗎?不能期望兒女繼承父母的職業嗎?如果這就是支配、就是毒母,那麼,不這麼做的母親又是什麼?就是「聖母」嗎?呵,真不知道聖母的兒女都是多優秀、多出色的人哪!
      【罪孽深重的女人】
      上個月十九日,嫌犯黑田正幸在「未來電機」電器行前揮刀行兇,造成十五個人死傷。
      正幸會犯下那起慘絕人寰的案件……全都是我的錯。正幸原本是住在我家樓上的鄰居,雖然是單親家庭,但他們母子的感情很好,正幸時常露出好像能帶來幸福的笑容。即使如此,我也早就預料到正幸會因為殺人事件登上新聞。全怪我,如果那天,我不要出手幫他就好了……我真是個罪孽深重的女人!
      【最好的朋友】
      大豆生田薰子?什麼奇怪的名字?還穿那什麼廉價的粉紅色套裝來參加頒獎典禮,有沒有搞錯啊?我投稿好幾次才終於得獎,竟然被一個鄉巴佬用一部名字看起來平淡無奇的作品奪走最優秀獎。
      但是基於禮貌,我還是和大豆生田交換了聯絡方式。我很快就看完了她的得獎作,沒想到我會敗給這種作品!既然是寫作路上「最好的朋友」,那就讓我來給她一點建議……
      【善良老實人】
      我成為殺人案的嫌犯接受審判時,媽媽流著淚在法庭上作證。她說不知道為什麼我會做出這麼可怕的事,她說她從來不曾要求我在班上要得第一名,只希望我是一個體貼善良的孩子,這是她唯一的心願。
      媽媽的證詞一點也沒有錯,只是我們都不知道,善良的人也會忍無可忍,老實的人也能拿刀殺人……
      【我最親愛的】
      你們要打聽有紗的事嗎?好,我知道了。
      我和妹妹有紗雖然住在同一個屋簷下,但我與她沒有任何親密接觸的回憶。從我懂事開始,媽媽就會嚴厲管教我,我卻從來沒看過她對妹妹發脾氣。所以當鄰町發生那起孕婦遭毆事件時,媽媽就不准懷孕的有紗一個人出門。聽說是有人在夜晚的路上用棍棒痛毆孕婦,孕婦雖然撿回一命,但嬰兒卻不幸夭折,而我最親愛的有紗,就沒那麼幸運……
    1. General
    2. Unique ID                      : 234356990090384858169996157663905354014 (0xB04F83B58FA86234AACE9E2A46A0911E)
    3. Format                         : Matroska
    4. Format version                 : Version 4 / Version 2
    5. File size                      : 1.19 GiB
    6. Duration                       : 52 min 45 s
    7. Overall bit rate               : 3 217 kb/s
    8. Encoded date                   : UTC 2019-08-20 15:37:11
    9. Writing application            : mkvmerge v31.0.0 ('Dolores In A Shoestand') 64-bit
    10. Writing library                : libebml v1.3.6 + libmatroska v1.4.9

    11. Video
    12. ID                             : 1
    13. Format                         : AVC
    14. Format/Info                    : Advanced Video Codec
    15. Format profile                 : High@L4.1
    16. Format settings                : CABAC / 5 Ref Frames
    17. Format settings, CABAC         : Yes
    18. Format settings, ReFrames      : 5 frames
    19. Codec ID                       : V_MPEG4/ISO/AVC
    20. Duration                       : 52 min 45 s
    21. Bit rate                       : 3 000 kb/s
    22. Width                          : 1 920 pixels
    23. Height                         : 1 080 pixels
    24. Display aspect ratio           : 16:9
    25. Frame rate mode                : Constant
    26. Frame rate                     : 29.970 (30000/1001) FPS
    27. Color space                    : YUV
    28. Chroma subsampling             : 4:2:0
    29. Bit depth                      : 8 bits
    30. Scan type                      : Progressive
    31. Bits/(Pixel*Frame)             : 0.048
    32. Stream size                    : 1.11 GiB (94%)
    33. Writing library                : x264 core 142
    34. Encoding settings              : cabac=1 / ref=5 / deblock=1:0:0 / analyse=0x3:0x113 / me=umh / subme=9 / psy=1 / psy_rd=1.00:0.00 / mixed_ref=1 / me_range=32 / chroma_me=1 / trellis=1 / 8x8dct=1 / cqm=0 / deadzone=21,11 / fast_pskip=1 / chroma_qp_offset=-2 / threads=12 / lookahead_threads=1 / sliced_threads=0 / nr=0 / decimate=1 / interlaced=0 / bluray_compat=0 / stitchable=1 / constrained_intra=0 / bframes=3 / b_pyramid=2 / b_adapt=1 / b_bias=0 / direct=3 / weightb=1 / open_gop=0 / weightp=2 / keyint=30 / keyint_min=3 / scenecut=0 / intra_refresh=0 / rc_lookahead=40 / rc=abr / mbtree=1 / bitrate=3000 / ratetol=1.0 / qcomp=0.60 / qpmin=0 / qpmax=69 / qpstep=4 / vbv_maxrate=4500 / vbv_bufsize=6750 / nal_hrd=none / filler=0 / ip_ratio=1.40 / aq=1:1.00
    35. Language                       : English
    36. Default                        : Yes
    37. Forced                         : No

    38. Audio
    39. ID                             : 2
    40. Format                         : AAC
    41. Format/Info                    : Advanced Audio Codec
    42. Format profile                 : LC
    43. Codec ID                       : A_AAC-2
    44. Duration                       : 52 min 45 s
    45. Bit rate                       : 192 kb/s
    46. Channel(s)                     : 2 channels
    47. Channel positions              : Front: L R
    48. Sampling rate                  : 44.1 kHz
    49. Frame rate                     : 43.066 FPS (1024 SPF)
    50. Compression mode               : Lossy
    51. Stream size                    : 72.4 MiB (6%)
    52. Language                       : English
    53. Default                        : No
    54. Forced                         : No

    55. Text #1
    56. ID                             : 3
    57. Format                         : UTF-8
    58. Codec ID                       : S_TEXT/UTF8
    59. Codec ID/Info                  : UTF-8 Plain Text
    60. Duration                       : 52 min 32 s
    61. Bit rate                       : 50 b/s
    62. Count of elements              : 528
    63. Stream size                    : 19.3 KiB (0%)
    64. Language                       : Japanese
    65. Default                        : No
    66. Forced                         : No

    67. Text #2
    68. ID                             : 4
    69. Format                         : UTF-8
    70. Codec ID                       : S_TEXT/UTF8
    71. Codec ID/Info                  : UTF-8 Plain Text
    72. Duration                       : 51 min 0 s
    73. Bit rate                       : 33 b/s
    74. Count of elements              : 520
    75. Stream size                    : 12.6 KiB (0%)
    76. Language                       : Chinese
    77. Default                        : Yes
    78. Forced                         : No
    复制代码




    购买主题 已有 2 人购买  本主题需向作者支付 20 大洋 才能浏览
    郑重声明:
    本人提供的所有影视作品均是在网上搜集,任何涉及商业盈利目的均不得使用,否则产生的一切后果将由您自己承担!
    本人不对本人所发布的任何内容负任何法律责任!该下载内容仅做宽带测试使用,请在下载后24小时内删除。请购买正版!
    本人列出的文件没有保存在本站的服务器上,本人仅负责连接,本人对被传播文件的内容一无所知。
    如侵犯视频原作者或发行商版权,请联系本人删除!
    回复

    使用道具 举报

  • TA的每日心情
    奋斗
    昨天 13:04
  • 签到天数: 144 天

    [LV.7]常住居民III

    5

    主题

    532

    帖子

    37

    积分

    初级影迷

    Rank: 2

    积分
    37
    发表于 2020-9-15 06:37:25 | 显示全部楼层
    感谢分享····
    回复

    使用道具 举报

  • TA的每日心情
    开心
    昨天 07:00
  • 签到天数: 104 天

    [LV.6]常住居民II

    0

    主题

    251

    帖子

    15

    积分

    入门影迷

    Rank: 1

    积分
    15
    发表于 2020-9-15 07:09:12 | 显示全部楼层

    感谢分享····
    回复

    使用道具 举报

  • TA的每日心情
    开心
    昨天 13:21
  • 签到天数: 60 天

    [LV.6]常住居民II

    1

    主题

    647

    帖子

    114

    积分

    中级影迷

    Rank: 3Rank: 3

    积分
    114
    发表于 2020-9-15 07:51:48 | 显示全部楼层
    感谢分享!
    回复

    使用道具 举报

  • TA的每日心情
    奋斗
    昨天 14:58
  • 签到天数: 65 天

    [LV.6]常住居民II

    4

    主题

    800

    帖子

    69

    积分

    初级影迷

    Rank: 2

    积分
    69
    发表于 2020-9-15 10:39:15 | 显示全部楼层
    感谢分享。
    回复

    使用道具 举报

  • TA的每日心情

    昨天 20:44
  • 签到天数: 12 天

    [LV.3]偶尔看看II

    1

    主题

    48

    帖子

    6

    积分

    入门影迷

    Rank: 1

    积分
    6
    发表于 2020-9-15 15:30:47 | 显示全部楼层
    感谢分享好剧
    回复

    使用道具 举报

  • TA的每日心情
    开心
    昨天 19:06
  • 签到天数: 149 天

    [LV.7]常住居民III

    2

    主题

    1546

    帖子

    372

    积分

    超级影迷

    Rank: 6Rank: 6

    积分
    372
    发表于 2020-9-15 20:34:02 | 显示全部楼层
    感谢分享。
    回复

    使用道具 举报

  • TA的每日心情
    开心
    昨天 07:09
  • 签到天数: 87 天

    [LV.6]常住居民II

    1

    主题

    858

    帖子

    183

    积分

    高级影迷

    Rank: 4

    积分
    183
    发表于 2020-9-15 21:40:37 | 显示全部楼层
    谢谢楼主分享
    回复

    使用道具 举报

  • TA的每日心情

    昨天 07:30
  • 签到天数: 514 天

    [LV.9]以坛为家II

    38

    主题

    5856

    帖子

    752

    积分

    专业影迷

    Rank: 8Rank: 8

    积分
    752
    发表于 2020-9-16 07:29:34 | 显示全部楼层
    谢谢朋友发布、分享!
    回复

    使用道具 举报

    您需要登录后才可以回帖 登录 | 立即注册

    本版积分规则

    QQ|Archiver|手机版|小黑屋|影迷乐园

    GMT+8, 2020-9-30 05:32 , Processed in 0.108174 second(s), 28 queries .

    Powered by Discuz! X3.4

    Copyright © 2001-2020, Tencent Cloud.

    快速回复 返回顶部 返回列表