请选择 进入手机版 | 继续访问电脑版

YMLY-影迷乐园-特效字幕 蓝光原盘 1080P 高清动漫电影电视剧

 找回密码
 立即注册
搜索
查看: 230|回复: 20

[韩国] [115+百度][2006][1080P][幻想情侣.导演剪辑版][韩语.简中字幕][吴智昊.韩艺瑟][16集全][MKV][35.28GB][Fantasy.Couple.1080p.x265.10bit-Yumi@FRDS]

[复制链接]
  • TA的每日心情
    奋斗
    2020-2-21 00:36
  • 签到天数: 656 天

    [LV.9]以坛为家II

    7487

    主题

    9364

    帖子

    5万

    积分

    超级版主

    与齐同行,是最初的梦想,也是一辈子的执着~

    Rank: 16Rank: 16Rank: 16Rank: 16

    积分
    55257

    内测勋章最佳新人十二生肖之猴VIP包月勋章影迷男神小土豪勋章土豪勋章富甲一方精华勋章金话筒主题达人灌水之王

    发表于 2020-9-16 05:52:31 | 显示全部楼层 |阅读模式
    下载说明:

    百度网盘分享极其不稳定,如有链接失效,请第一时间站内短消息通知我,上线后会第一时间补发!请大家多多谅解!115礼包只能115会员接收下载,其它工具都下载不了!


    ----转载自FRDS,感谢压制和原发布人员,特此鸣谢!----



    ◎译  名 梦幻情侣/Couple or Trouble/Fantasy Couple/幻想情侣/茶煲阿四
    ◎片  名 환상의 커플
    ◎年  代 2006
    ◎产  地 韩国
    ◎类  别 喜剧 / 爱情
    ◎语  言 韩语
    ◎上映日期 2006-10-14(韩国)
    ◎IMDb评分  7.5/10 from 251 users
    ◎IMDb链接  https://www.imdb.com/title/tt0978053/
    ◎豆瓣评分 8.1/10 from 12026 users
    ◎豆瓣链接 https://movie.douban.com/subject/2024900/
    ◎集  数 16
    ◎片  长 60分钟
    ◎导  演 金尚昊 Kim Sang-ho
    ◎编  剧 洪美兰 Mi-ran Hong / 洪静恩 Jeong-eun Hong
    ◎主  演 吴智昊 Ji-ho Oh
           韩艺瑟 Ye-seul Han
           朴寒星 Han-byeol Park
           李星民 Sung-min Lee
           金光奎 Kwang-gyu Kim
           郑秀英 Soo-young Jeong
           金正旭 Jeong-wook Kim
           李美英 Mi-yeong Lee
           朴俊木 Joon-Mok Park
           金成珉 Kim Sung Min
           朴成均 Park Seong-gyoon

    ◎标  签 韩剧 | 韩艺瑟 | 搞笑 | 爱情 | 梦幻的情侣 | 喜剧 | 韩国 | 看过的电视剧

    ◎简  介

      建筑工人张哲修(吴志浩)是个心肠柔软善良的男人,可是为了养活哥嫂去世丢下的三个侄子,他不得不表现得十分强悍粗旷吝啬,并且千方百计接下与建筑有关没关的一切活计,以求多挣些钱。自小失去父母却得到一大笔遗产的赵安娜(韩艺瑟)为人十分高傲嚣张,世间能入她眼的物事基本没有,丈夫朴比利(金盛民)甚至也被她当作佣人呼来唤去。
      
      张哲修三次相遇赵安娜,三次损失钱财,内心忿恨发誓要找机会讨回。朴比利表示已对赵安娜忍无可忍后,赵安娜于雨夜独坐豪华游艇喝闷酒,一不小心身坠大海。因为尸首找不到,朴比利认定赵安娜已死,掩饰不住兴奋,但赵安娜被人救上岸送进了医院,只是失去记忆。医院里,张哲修发现失忆的赵安娜,正要请保姆照料三个侄子的他灵机一动,哄骗赵安娜说两人是男女朋友关系,唤她“罗丧失”将她接回了家中……
    1. General
    2. Unique ID                      : 223539374371340592995993399530989232048 (0xA82C1E13817E166187310E882C531FB0)
    3. Format                         : Matroska
    4. Format version                 : Version 4
    5. File size                      : 2.15 GiB
    6. Duration                       : 58 min 59 s
    7. Overall bit rate               : 5 217 kb/s
    8. Encoded date                   : UTC 2020-08-22 06:00:46
    9. Writing application            : mkvmerge v9.9.0 ('Pick Up') 64bit
    10. Writing library                : libebml v1.3.4 + libmatroska v1.4.5

    11. Video
    12. ID                             : 1
    13. Format                         : HEVC
    14. Format/Info                    : High Efficiency Video Coding
    15. Format profile                 : Main 10@L4@Main
    16. Codec ID                       : V_MPEGH/ISO/HEVC
    17. Duration                       : 58 min 59 s
    18. Bit rate                       : 5 023 kb/s
    19. Width                          : 1 920 pixels
    20. Height                         : 1 080 pixels
    21. Display aspect ratio           : 16:9
    22. Frame rate mode                : Constant
    23. Frame rate                     : 29.970 (30000/1001) FPS
    24. Color space                    : YUV
    25. Chroma subsampling             : 4:2:0
    26. Bit depth                      : 10 bits
    27. Bits/(Pixel*Frame)             : 0.081
    28. Stream size                    : 2.07 GiB (96%)
    29. Writing library                : x265 2.8:[Windows][GCC 5.1.0][64 bit] 10bit
    30. Encoding settings              : cpuid=1111039 / frame-threads=2 / wpp / no-pmode / no-pme / no-psnr / no-ssim / log-level=2 / input-csp=1 / input-res=1920x1080 / interlace=0 / total-frames=0 / level-idc=0 / high-tier=1 / uhd-bd=0 / ref=3 / no-allow-non-conformance / no-repeat-headers / annexb / no-aud / no-hrd / info / hash=0 / no-temporal-layers / open-gop / min-keyint=25 / keyint=250 / gop-lookahead=0 / bframes=4 / b-adapt=2 / b-pyramid / bframe-bias=0 / rc-lookahead=20 / lookahead-slices=6 / scenecut=40 / radl=0 / no-intra-refresh / ctu=64 / min-cu-size=8 / no-rect / no-amp / max-tu-size=32 / tu-inter-depth=1 / tu-intra-depth=1 / limit-tu=0 / rdoq-level=0 / dynamic-rd=0.00 / no-ssim-rd / signhide / no-tskip / nr-intra=0 / nr-inter=0 / no-constrained-intra / strong-intra-smoothing / max-merge=2 / limit-refs=3 / no-limit-modes / me=1 / subme=2 / merange=57 / temporal-mvp / weightp / no-weightb / no-analyze-src-pics / deblock=0:0 / sao / no-sao-non-deblock / rd=3 / no-early-skip / rskip / no-fast-intra / no-tskip-fast / no-cu-lossless / no-b-intra / no-splitrd-skip / rdpenalty=0 / psy-rd=0.00 / psy-rdoq=0.00 / no-rd-refine / no-lossless / cbqpoffs=0 / crqpoffs=0 / rc=abr / bitrate=5000 / qcomp=0.60 / qpstep=4 / stats-write=0 / stats-read=0 / ipratio=1.40 / pbratio=1.30 / aq-mode=2 / aq-strength=1.00 / cutree / zone-count=0 / no-strict-cbr / qg-size=32 / no-rc-grain / qpmax=69 / qpmin=0 / no-const-vbv / sar=1 / overscan=0 / videoformat=5 / range=0 / colorprim=2 / transfer=2 / colormatrix=2 / chromaloc=0 / display-window=0 / max-cll=0,0 / min-luma=0 / max-luma=1023 / log2-max-poc-lsb=8 / vui-timing-info / vui-hrd-info / slices=1 / no-opt-qp-pps / no-opt-ref-list-length-pps / no-multi-pass-opt-rps / scenecut-bias=0.05 / no-opt-cu-delta-qp / no-aq-motion / no-hdr / no-hdr-opt / no-dhdr10-opt / no-idr-recovery-sei / analysis-reuse-level=5 / scale-factor=0 / refine-intra=0 / refine-inter=0 / refine-mv=0 / no-limit-sao / ctu-info=0 / no-lowpass-dct / refine-mv-type=0 / copy-pic=1 / max-ausize-factor=1.0 / no-dynamic-refine / no-single-sei
    31. Default                        : Yes
    32. Forced                         : No

    33. Audio
    34. ID                             : 3
    35. Format                         : AC-3
    36. Format/Info                    : Audio Coding 3
    37. Commercial name                : Dolby Digital
    38. Codec ID                       : A_AC3
    39. Duration                       : 58 min 58 s
    40. Bit rate mode                  : Constant
    41. Bit rate                       : 192 kb/s
    42. Channel(s)                     : 2 channels
    43. Channel layout                 : L R
    44. Sampling rate                  : 48.0 kHz
    45. Frame rate                     : 31.250 FPS (1536 SPF)
    46. Bit depth                      : 16 bits
    47. Compression mode               : Lossy
    48. Stream size                    : 81.0 MiB (4%)
    49. Language                       : Korean
    50. Service kind                   : Complete Main
    51. Default                        : Yes
    52. Forced                         : No

    53. Text
    54. ID                             : 2
    55. Format                         : ASS
    56. Codec ID                       : S_TEXT/ASS
    57. Codec ID/Info                  : Advanced Sub Station Alpha
    58. Duration                       : 58 min 52 s
    59. Bit rate                       : 179 b/s
    60. Count of elements              : 832
    61. Compression mode               : Lossless
    62. Stream size                    : 77.2 KiB (0%)
    63. Language                       : Chinese
    64. Default                        : Yes
    65. Forced                         : Yes
    复制代码





    购买主题 已有 5 人购买  本主题需向作者支付 40 大洋 才能浏览
    郑重声明:
    本人提供的所有影视作品均是在网上搜集,任何涉及商业盈利目的均不得使用,否则产生的一切后果将由您自己承担!
    本人不对本人所发布的任何内容负任何法律责任!该下载内容仅做宽带测试使用,请在下载后24小时内删除。请购买正版!
    本人列出的文件没有保存在本站的服务器上,本人仅负责连接,本人对被传播文件的内容一无所知。
    如侵犯视频原作者或发行商版权,请联系本人删除!
    回复

    使用道具 举报

  • TA的每日心情

    昨天 07:04
  • 签到天数: 513 天

    [LV.9]以坛为家II

    38

    主题

    5846

    帖子

    750

    积分

    专业影迷

    Rank: 8Rank: 8

    积分
    750
    发表于 2020-9-16 07:27:09 | 显示全部楼层
    支持朋友发布好资源!
    回复

    使用道具 举报

  • TA的每日心情
    奋斗
    昨天 09:30
  • 签到天数: 143 天

    [LV.7]常住居民III

    5

    主题

    521

    帖子

    37

    积分

    初级影迷

    Rank: 2

    积分
    37
    发表于 2020-9-16 08:04:43 | 显示全部楼层
    感谢分享     
    回复

    使用道具 举报

  • TA的每日心情
    开心
    昨天 14:02
  • 签到天数: 184 天

    [LV.7]常住居民III

    1

    主题

    339

    帖子

    93

    积分

    中级影迷

    Rank: 3Rank: 3

    积分
    93
    发表于 2020-9-16 09:07:25 | 显示全部楼层
    感谢分享好资源
    回复

    使用道具 举报

  • TA的每日心情
    难过
    昨天 09:21
  • 签到天数: 34 天

    [LV.5]常住居民I

    3

    主题

    372

    帖子

    101

    积分

    中级影迷

    Rank: 3Rank: 3

    积分
    101
    发表于 2020-9-16 09:25:57 | 显示全部楼层
    谢谢分享哦
    回复

    使用道具 举报

  • TA的每日心情
    开心
    昨天 08:37
  • 签到天数: 34 天

    [LV.5]常住居民I

    0

    主题

    319

    帖子

    110

    积分

    中级影迷

    Rank: 3Rank: 3

    积分
    110
    发表于 2020-9-16 09:48:49 | 显示全部楼层
    谢谢分享!
    回复

    使用道具 举报

  • TA的每日心情
    开心
    昨天 08:37
  • 签到天数: 34 天

    [LV.5]常住居民I

    0

    主题

    319

    帖子

    110

    积分

    中级影迷

    Rank: 3Rank: 3

    积分
    110
    发表于 2020-9-16 09:49:05 | 显示全部楼层
    谢谢分享!
    回复

    使用道具 举报

  • TA的每日心情
    开心
    昨天 07:03
  • 签到天数: 96 天

    [LV.6]常住居民II

    8

    主题

    1101

    帖子

    84

    积分

    中级影迷

    Rank: 3Rank: 3

    积分
    84
    发表于 2020-9-16 11:00:45 | 显示全部楼层
    感谢分享,支持一下
    回复

    使用道具 举报

  • TA的每日心情
    无聊
    昨天 00:11
  • 签到天数: 86 天

    [LV.6]常住居民II

    1

    主题

    845

    帖子

    181

    积分

    高级影迷

    Rank: 4

    积分
    181
    发表于 2020-9-16 11:16:44 | 显示全部楼层
    谢谢楼主分享
    回复

    使用道具 举报

  • TA的每日心情
    擦汗
    昨天 16:34
  • 签到天数: 64 天

    [LV.6]常住居民II

    4

    主题

    790

    帖子

    75

    积分

    中级影迷

    Rank: 3Rank: 3

    积分
    75
    发表于 2020-9-16 11:38:11 | 显示全部楼层
    谢谢楼主分享
    回复

    使用道具 举报

    您需要登录后才可以回帖 登录 | 立即注册

    本版积分规则

    QQ|Archiver|手机版|小黑屋|影迷乐园

    GMT+8, 2020-9-29 01:28 , Processed in 0.190296 second(s), 28 queries .

    Powered by Discuz! X3.4

    Copyright © 2001-2020, Tencent Cloud.

    快速回复 返回顶部 返回列表