请选择 进入手机版 | 继续访问电脑版

YMLY-影迷乐园-特效字幕 蓝光原盘 1080P 高清动漫电影电视剧

 找回密码
 立即注册
搜索
查看: 1093|回复: 57

[美国] [115+百度][2020][1080P][异星灾变S01.第一季][内封中英字幕][10集全][MKV][8.47GB][Raised.by.Wolves.2020.S01.1080p.HMAX.WEB-DL.DD5.1.x265.10bit-Yumi@FRDS]

  [复制链接]
  • TA的每日心情
    奋斗
    2020-2-21 00:36
  • 签到天数: 656 天

    [LV.9]以坛为家II

    8183

    主题

    1万

    帖子

    6万

    积分

    超级版主

    与齐同行,是最初的梦想,也是一辈子的执着~

    Rank: 16Rank: 16Rank: 16Rank: 16

    积分
    64078

    内测勋章最佳新人十二生肖之猴VIP包月勋章影迷男神小土豪勋章土豪勋章富甲一方精华勋章金话筒主题达人灌水之王

    发表于 2020-10-3 14:03:37 | 显示全部楼层 |阅读模式
    下载说明:

    百度网盘分享极其不稳定,如有链接失效,请第一时间站内短消息通知我,上线后会第一时间补发!请大家多多谅解!电驴链接只能115会员离线下载,其它工具都下载不了!


    ----转载自FRDS,感谢压制和原发布人员,特此鸣谢!----



    ◎译  名 异星灾变 / 狼群养子 / 由狼养大
    ◎片  名 Raised by Wolves
    ◎年  代 2020
    ◎产  地 美国
    ◎类  别 剧情 / 科幻
    ◎语  言 英语
    ◎上映日期 2020-09-03(美国)
    ◎IMDb评分  9.2/10 from 5 users
    ◎IMDb链接  https://www.imdb.com/title/tt9170108
    ◎豆瓣评分 0/10 from 0 users
    ◎豆瓣链接 https://movie.douban.com/subject/30345691/
    ◎集  数 10
    ◎片  长 60分钟
    ◎导  演 雷德利·斯科特 Ridley Scott / 卢克·斯科特 Luke Scott / 塞尔吉奥·米米卡-戈赞 Sergio Mimica-Gezzan / 亚历克斯·加巴西 Alex Gabassi / 詹姆斯·哈维斯 James Hawes
    ◎编  剧 亚伦·格兹考斯基 Aaron Guzikowski / 海瑟·贝尔森 Heather Bellson
    ◎主  演 阿曼达·科林 Amanda Collin
           崔维斯·费米尔 Travis Fimmel
           阿布巴卡尔·萨利姆 Abubakar Salim
           文塔·麦格拉斯 Winta McGrath
           妮娅姆·阿尔格 Niamh Algar
           马蒂亚斯·瓦雷拉 Matias Varela
           费利克斯·杰米森 Felix Jamieson
           伊桑·哈扎德 Ethan Hazzard
           乔丹·洛克伦 Jordan Loughran
           Aasiya Shah
           王玮雯 Ivy Wong
           苏珊·丹福特 Susan Danford
           珍娜·厄普顿 Jenna Upton
           柯斯莫·贾维斯 Cosmo Jarvis
           史蒂夫·沃尔 Steve Wall
           勃朗特·卡迈克尔 Bronte Carmichael
           布雷特·威廉姆斯 Brett Williams
           克莱德·伯宁 Clyde Berning
           布兰登·默雷 Brendan Murray
           坦娅·范·格拉恩 Tanya van Graan
           乔·瓦兹 Joe Vaz


    ◎标  签 科幻 | 雷德利·斯科特 | 美剧 | 2020 | 美国 | 剧集 | 剧情 | TNT

    ◎简  介  

      故事讲述两个机器人授命在一个神秘星球抚育人类后代,随着宗教差异导致的分崩离析,机器人发现控制人类信仰是一件极度危险的事情。斯科特表示:“我一直在寻找科幻题材的新疆界,这部剧集将展现一个与众不同、充满想象力的世界,同时这部剧也提出了这样的问题:是什么让我们成为了人类?是什么构成了一个家庭?如果我们能重新来过、消除我们所在星球的混乱会怎么样?我们能幸存下去吗?我们能做得更好吗?”
    1. General
    2. Unique ID                      : 210071204347151181529070732184732681542 (0x9E0A3E06C12CC3B5B35BB4F8D4F1C546)
    3. Format                         : Matroska
    4. Format version                 : Version 4
    5. File size                      : 984 MiB
    6. Duration                       : 48 min 43 s
    7. Overall bit rate               : 2 825 kb/s
    8. Encoded date                   : UTC 2020-10-02 04:55:17
    9. Writing application            : mkvmerge v9.9.0 ('Pick Up') 64bit
    10. Writing library                : libebml v1.3.4 + libmatroska v1.4.5

    11. Video
    12. ID                             : 1
    13. Format                         : HEVC
    14. Format/Info                    : High Efficiency Video Coding
    15. Format profile                 : Main 10@L4@Main
    16. Codec ID                       : V_MPEGH/ISO/HEVC
    17. Duration                       : 48 min 43 s
    18. Bit rate                       : 2 439 kb/s
    19. Width                          : 1 920 pixels
    20. Height                         : 1 080 pixels
    21. Display aspect ratio           : 16:9
    22. Frame rate mode                : Constant
    23. Frame rate                     : 23.976 (24000/1001) FPS
    24. Color space                    : YUV
    25. Chroma subsampling             : 4:2:0
    26. Bit depth                      : 10 bits
    27. Bits/(Pixel*Frame)             : 0.049
    28. Stream size                    : 850 MiB (86%)
    29. Writing library                : x265 2.8:[Windows][GCC 5.1.0][64 bit] 10bit
    30. Encoding settings              : cpuid=1111039 / frame-threads=2 / wpp / no-pmode / no-pme / no-psnr / no-ssim / log-level=2 / input-csp=1 / input-res=1920x1080 / interlace=0 / total-frames=0 / level-idc=0 / high-tier=1 / uhd-bd=0 / ref=3 / no-allow-non-conformance / no-repeat-headers / annexb / no-aud / no-hrd / info / hash=0 / no-temporal-layers / open-gop / min-keyint=24 / keyint=240 / gop-lookahead=0 / bframes=4 / b-adapt=2 / b-pyramid / bframe-bias=0 / rc-lookahead=20 / lookahead-slices=6 / scenecut=40 / radl=0 / no-intra-refresh / ctu=64 / min-cu-size=8 / no-rect / no-amp / max-tu-size=32 / tu-inter-depth=1 / tu-intra-depth=1 / limit-tu=0 / rdoq-level=0 / dynamic-rd=0.00 / no-ssim-rd / signhide / no-tskip / nr-intra=0 / nr-inter=0 / no-constrained-intra / strong-intra-smoothing / max-merge=2 / limit-refs=3 / no-limit-modes / me=1 / subme=2 / merange=57 / temporal-mvp / weightp / no-weightb / no-analyze-src-pics / deblock=0:0 / sao / no-sao-non-deblock / rd=3 / no-early-skip / rskip / no-fast-intra / no-tskip-fast / no-cu-lossless / no-b-intra / no-splitrd-skip / rdpenalty=0 / psy-rd=0.00 / psy-rdoq=0.00 / no-rd-refine / no-lossless / cbqpoffs=0 / crqpoffs=0 / rc=crf / crf=19.0 / qcomp=0.60 / qpstep=4 / stats-write=0 / stats-read=0 / ipratio=1.40 / pbratio=1.30 / aq-mode=2 / aq-strength=1.00 / cutree / zone-count=0 / no-strict-cbr / qg-size=32 / no-rc-grain / qpmax=69 / qpmin=0 / no-const-vbv / sar=1 / overscan=0 / videoformat=5 / range=0 / colorprim=2 / transfer=2 / colormatrix=2 / chromaloc=0 / display-window=0 / max-cll=0,0 / min-luma=0 / max-luma=1023 / log2-max-poc-lsb=8 / vui-timing-info / vui-hrd-info / slices=1 / no-opt-qp-pps / no-opt-ref-list-length-pps / no-multi-pass-opt-rps / scenecut-bias=0.05 / no-opt-cu-delta-qp / no-aq-motion / no-hdr / no-hdr-opt / no-dhdr10-opt / no-idr-recovery-sei / analysis-reuse-level=5 / scale-factor=0 / refine-intra=0 / refine-inter=0 / refine-mv=0 / no-limit-sao / ctu-info=0 / no-lowpass-dct / refine-mv-type=0 / copy-pic=1 / max-ausize-factor=1.0 / no-dynamic-refine / no-single-sei
    31. Default                        : Yes
    32. Forced                         : No

    33. Audio
    34. ID                             : 2
    35. Format                         : AC-3
    36. Format/Info                    : Audio Coding 3
    37. Commercial name                : Dolby Digital
    38. Codec ID                       : A_AC3
    39. Duration                       : 48 min 43 s
    40. Bit rate mode                  : Constant
    41. Bit rate                       : 384 kb/s
    42. Channel(s)                     : 6 channels
    43. Channel layout                 : L R C LFE Ls Rs
    44. Sampling rate                  : 48.0 kHz
    45. Frame rate                     : 31.250 FPS (1536 SPF)
    46. Bit depth                      : 16 bits
    47. Compression mode               : Lossy
    48. Stream size                    : 134 MiB (14%)
    49. Service kind                   : Complete Main
    50. Default                        : Yes
    51. Forced                         : No

    52. Text
    53. ID                             : 3
    54. Format                         : ASS
    55. Codec ID                       : S_TEXT/ASS
    56. Codec ID/Info                  : Advanced Sub Station Alpha
    57. Duration                       : 47 min 2 s
    58. Bit rate                       : 333 b/s
    59. Count of elements              : 658
    60. Compression mode               : Lossless
    61. Stream size                    : 115 KiB (0%)
    62. Default                        : Yes
    63. Forced                         : No
    复制代码




    购买主题 已有 32 人购买  本主题需向作者支付 20 大洋 才能浏览
    郑重声明:
    本人提供的所有影视作品均是在网上搜集,任何涉及商业盈利目的均不得使用,否则产生的一切后果将由您自己承担!
    本人不对本人所发布的任何内容负任何法律责任!该下载内容仅做宽带测试使用,请在下载后24小时内删除。请购买正版!
    本人列出的文件没有保存在本站的服务器上,本人仅负责连接,本人对被传播文件的内容一无所知。
    如侵犯视频原作者或发行商版权,请联系本人删除!
    回复

    使用道具 举报

  • TA的每日心情
    开心
    3 小时前
  • 签到天数: 45 天

    [LV.5]常住居民I

    0

    主题

    73

    帖子

    35

    积分

    初级影迷

    Rank: 2

    积分
    35
    发表于 2020-10-3 14:12:53 | 显示全部楼层
    感谢楼主分享
    回复

    使用道具 举报

  • TA的每日心情

    昨天 00:07
  • 签到天数: 79 天

    [LV.6]常住居民II

    3

    主题

    759

    帖子

    42

    积分

    初级影迷

    Rank: 2

    积分
    42
    发表于 2020-10-3 14:29:53 | 显示全部楼层
    科幻片安安
    回复

    使用道具 举报

  • TA的每日心情
    慵懒
    昨天 08:35
  • 签到天数: 174 天

    [LV.7]常住居民III

    4

    主题

    1070

    帖子

    94

    积分

    中级影迷

    Rank: 3Rank: 3

    积分
    94
    发表于 2020-10-3 14:39:00 | 显示全部楼层
    感谢分享!
    回复

    使用道具 举报

  • TA的每日心情

    昨天 11:09
  • 签到天数: 55 天

    [LV.5]常住居民I

    1

    主题

    701

    帖子

    158

    积分

    高级影迷

    Rank: 4

    积分
    158
    发表于 2020-10-3 15:21:23 | 显示全部楼层
    感谢楼主分享
    回复

    使用道具 举报

  • TA的每日心情
    慵懒
    2 小时前
  • 签到天数: 82 天

    [LV.6]常住居民II

    10

    主题

    159

    帖子

    417

    积分

    超级影迷

    Rank: 6Rank: 6

    积分
    417
    发表于 2020-10-3 15:25:55 | 显示全部楼层
    还是软字幕看着习惯   感谢分享  双节快乐
    回复

    使用道具 举报

  • TA的每日心情
    开心
    昨天 00:30
  • 签到天数: 219 天

    [LV.7]常住居民III

    0

    主题

    288

    帖子

    53

    积分

    初级影迷

    Rank: 2

    积分
    53
    发表于 2020-10-3 15:36:18 | 显示全部楼层
    太好了,等了好久了
    回复

    使用道具 举报

  • TA的每日心情
    开心
    昨天 15:42
  • 签到天数: 254 天

    [LV.8]以坛为家I

    0

    主题

    514

    帖子

    65

    积分

    初级影迷

    Rank: 2

    积分
    65
    发表于 2020-10-3 16:35:09 | 显示全部楼层
    哈哈哈来了来了终于来了,期待已久,谢谢大大搬运
    回复

    使用道具 举报

  • TA的每日心情

    2020-9-11 00:02
  • 签到天数: 6 天

    [LV.2]偶尔看看I

    0

    主题

    68

    帖子

    21

    积分

    入门影迷

    Rank: 1

    积分
    21
    发表于 2020-10-3 18:29:34 来自手机 | 显示全部楼层
    感谢分享!
    回复

    使用道具 举报

  • TA的每日心情
    无聊
    昨天 12:30
  • 签到天数: 65 天

    [LV.6]常住居民II

    0

    主题

    99

    帖子

    58

    积分

    初级影迷

    Rank: 2

    积分
    58
    发表于 2020-10-3 19:01:40 | 显示全部楼层
    感谢楼主的分享
    回复

    使用道具 举报

    您需要登录后才可以回帖 登录 | 立即注册

    本版积分规则

    QQ|Archiver|手机版|小黑屋|影迷乐园

    GMT+8, 2020-12-1 03:23 , Processed in 0.080331 second(s), 28 queries .

    Powered by Discuz! X3.4

    Copyright © 2001-2020, Tencent Cloud.

    快速回复 返回顶部 返回列表