请选择 进入手机版 | 继续访问电脑版

YMLY-影迷乐园-特效字幕 蓝光原盘 1080P 高清动漫电影电视剧

 找回密码
 立即注册
搜索
查看: 92|回复: 11

[日本] [115][2019][1080P][前男友狂][日语.繁中字幕][新木优子.高良健吾][9集全][MKV][9.47GB][Motokare.Mania.S01.1080p.KKTV.WEB-DL.AAC2.0.H264-Ao]

[复制链接]
  • TA的每日心情
    奋斗
    2020-2-21 00:36
  • 签到天数: 656 天

    [LV.9]以坛为家II

    7725

    主题

    9686

    帖子

    5万

    积分

    超级版主

    与齐同行,是最初的梦想,也是一辈子的执着~

    Rank: 16Rank: 16Rank: 16Rank: 16

    积分
    58470

    内测勋章最佳新人十二生肖之猴VIP包月勋章影迷男神小土豪勋章土豪勋章富甲一方精华勋章金话筒主题达人灌水之王

    发表于 5 天前 | 显示全部楼层 |阅读模式
    KKTV源,内封繁中软字幕!可自行选择和关闭字幕。


    下载说明:

    近期百度云和谐的厉害,本剧将采用115网盘的方式分享,只能115网盘会员接收并下载,购买前请看清楚,如需百度云链接请在站内短消息联系我,本人会抽空搬运至百度云网盘,但是需扣除10大洋(论坛币,每天做日常任务可获取)作为搬运费!


    ----转载自OurBits,感谢压制和原发布人员,特此鸣谢!----



    ◎译  名 前男友狂 / 前男友控 / 我爱前男友
    ◎片  名 モトカレマニア
    ◎年  代 2019
    ◎产  地 日本
    ◎类  别 剧情 / 喜剧 / 爱情
    ◎语  言 日语
    ◎上映日期 2019-10-17(日本)
    ◎IMDb评分  6.5/10 from 6 users
    ◎IMDb链接  https://www.imdb.com/title/tt10661474
    ◎豆瓣评分 6.1/10 from 1411 users
    ◎豆瓣链接 https://movie.douban.com/subject/34608184/
    ◎集  数 9
    ◎片  长 54分钟
    ◎导  演 并木道子 Michiko Namiki / 相沢秀幸
    ◎编  剧 坪田文 Fumi Tsubota
    ◎主  演 新木优子 Yuko Araki
           高良健吾 Kengo Kora
           浜野谦太 Kenta Hamano
           田中美奈实 Minami Tanaka
           森田甘路 Kanro Morita
           关口Mandy Mandy Sekiguchi
           加藤虎之介 Toranosuke Kato
           井上翔太 Shota Inoue
           趣里 Shuri
           小手伸也 Shinya Kote
           山口纱弥加 Sayaka Yamaguchi


    ◎标  签 日本 | 爱情 | 2019 | 看过的电视剧 | 日语标签 | 喜剧 | 漫画改编 | ❤日剧

    ◎简  介  

      该剧改编自同名漫画。女主角难波ユリカ(新木优子)和男友分手五年仍对其念念不忘,每天早上都要先上网搜索男友的名字,还妄想与男友对话。转职到地产公司上班的她与前男友マコチ(高良健吾)重逢。成为同事的二人,会发生怎样的故事呢?
    1. General
    2. Unique ID                      : 318072198259886464611480913111497428601 (0xEF4A7A23EB3CF2F7BDF7C140BE4DCE79)
    3. Format                         : Matroska
    4. Format version                 : Version 4
    5. File size                      : 1.02 GiB
    6. Duration                       : 45 min 43 s
    7. Overall bit rate               : 3 209 kb/s
    8. Encoded date                   : UTC 2020-01-05 15:13:29
    9. Writing application            : mkvmerge v31.0.0 ('Dolores In A Shoestand') 64-bit
    10. Writing library                : libebml v1.3.6 + libmatroska v1.4.9

    11. Video
    12. ID                             : 1
    13. Format                         : AVC
    14. Format/Info                    : Advanced Video Codec
    15. Format profile                 : High@L4.1
    16. Format settings                : CABAC / 5 Ref Frames
    17. Format settings, CABAC         : Yes
    18. Format settings, Reference fra : 5 frames
    19. Codec ID                       : V_MPEG4/ISO/AVC
    20. Duration                       : 45 min 43 s
    21. Bit rate                       : 3 000 kb/s
    22. Width                          : 1 920 pixels
    23. Height                         : 1 080 pixels
    24. Display aspect ratio           : 16:9
    25. Frame rate mode                : Constant
    26. Frame rate                     : 29.970 (30000/1001) FPS
    27. Color space                    : YUV
    28. Chroma subsampling             : 4:2:0
    29. Bit depth                      : 8 bits
    30. Scan type                      : Progressive
    31. Bits/(Pixel*Frame)             : 0.048
    32. Stream size                    : 986 MiB (94%)
    33. Writing library                : x264 core 142
    34. Encoding settings              : cabac=1 / ref=5 / deblock=1:0:0 / analyse=0x3:0x113 / me=umh / subme=9 / psy=1 / psy_rd=1.00:0.00 / mixed_ref=1 / me_range=32 / chroma_me=1 / trellis=1 / 8x8dct=1 / cqm=0 / deadzone=21,11 / fast_pskip=1 / chroma_qp_offset=-2 / threads=12 / lookahead_threads=1 / sliced_threads=0 / nr=0 / decimate=1 / interlaced=0 / bluray_compat=0 / stitchable=1 / constrained_intra=0 / bframes=3 / b_pyramid=2 / b_adapt=1 / b_bias=0 / direct=3 / weightb=1 / open_gop=0 / weightp=2 / keyint=30 / keyint_min=3 / scenecut=0 / intra_refresh=0 / rc_lookahead=40 / rc=abr / mbtree=1 / bitrate=3000 / ratetol=1.0 / qcomp=0.60 / qpmin=0 / qpmax=69 / qpstep=4 / vbv_maxrate=4500 / vbv_bufsize=6750 / nal_hrd=none / filler=0 / ip_ratio=1.40 / aq=1:1.00
    35. Language                       : English
    36. Default                        : Yes
    37. Forced                         : No

    38. Audio
    39. ID                             : 2
    40. Format                         : AAC LC
    41. Format/Info                    : Advanced Audio Codec Low Complexity
    42. Codec ID                       : A_AAC-2
    43. Duration                       : 45 min 43 s
    44. Bit rate                       : 192 kb/s
    45. Channel(s)                     : 2 channels
    46. Channel layout                 : L R
    47. Sampling rate                  : 44.1 kHz
    48. Frame rate                     : 43.066 FPS (1024 SPF)
    49. Compression mode               : Lossy
    50. Stream size                    : 62.8 MiB (6%)
    51. Language                       : English
    52. Default                        : No
    53. Forced                         : No

    54. Text #1
    55. ID                             : 3
    56. Format                         : UTF-8
    57. Codec ID                       : S_TEXT/UTF8
    58. Codec ID/Info                  : UTF-8 Plain Text
    59. Duration                       : 45 min 28 s
    60. Bit rate                       : 57 b/s
    61. Count of elements              : 590
    62. Stream size                    : 19.2 KiB (0%)
    63. Language                       : Japanese
    64. Default                        : No
    65. Forced                         : No

    66. Text #2
    67. ID                             : 4
    68. Format                         : UTF-8
    69. Codec ID                       : S_TEXT/UTF8
    70. Codec ID/Info                  : UTF-8 Plain Text
    71. Duration                       : 45 min 28 s
    72. Bit rate                       : 41 b/s
    73. Count of elements              : 600
    74. Stream size                    : 13.9 KiB (0%)
    75. Language                       : Chinese
    76. Default                        : Yes
    77. Forced                         : No
    复制代码




    购买主题 已有 1 人购买  本主题需向作者支付 20 大洋 才能浏览
    郑重声明:
    本人提供的所有影视作品均是在网上搜集,任何涉及商业盈利目的均不得使用,否则产生的一切后果将由您自己承担!
    本人不对本人所发布的任何内容负任何法律责任!该下载内容仅做宽带测试使用,请在下载后24小时内删除。请购买正版!
    本人列出的文件没有保存在本站的服务器上,本人仅负责连接,本人对被传播文件的内容一无所知。
    如侵犯视频原作者或发行商版权,请联系本人删除!
    回复

    使用道具 举报

  • TA的每日心情
    开心
    10 小时前
  • 签到天数: 108 天

    [LV.6]常住居民II

    1

    主题

    1084

    帖子

    224

    积分

    高级影迷

    Rank: 4

    积分
    224
    发表于 5 天前 | 显示全部楼层
    谢谢楼主辛苦了
    回复

    使用道具 举报

  • TA的每日心情
    开心
    半小时前
  • 签到天数: 113 天

    [LV.6]常住居民II

    14

    主题

    1269

    帖子

    119

    积分

    中级影迷

    Rank: 3Rank: 3

    积分
    119
    发表于 5 天前 | 显示全部楼层
    感谢分享经典电视剧
    回复

    使用道具 举报

  • TA的每日心情
    开心
    昨天 07:06
  • 签到天数: 121 天

    [LV.7]常住居民III

    0

    主题

    282

    帖子

    31

    积分

    初级影迷

    Rank: 2

    积分
    31
    发表于 5 天前 | 显示全部楼层

    感谢分享
    回复

    使用道具 举报

  • TA的每日心情
    开心
    4 小时前
  • 签到天数: 81 天

    [LV.6]常住居民II

    1

    主题

    885

    帖子

    166

    积分

    高级影迷

    Rank: 4

    积分
    166
    发表于 5 天前 | 显示全部楼层
    感谢分享!
    回复

    使用道具 举报

  • TA的每日心情
    郁闷
    11 分钟前
  • 签到天数: 55 天

    [LV.5]常住居民I

    4

    主题

    590

    帖子

    182

    积分

    高级影迷

    Rank: 4

    积分
    182
    发表于 5 天前 | 显示全部楼层
    感谢分享!
    回复

    使用道具 举报

  • TA的每日心情
    奋斗
    3 小时前
  • 签到天数: 534 天

    [LV.9]以坛为家II

    38

    主题

    6097

    帖子

    806

    积分

    资深影迷

    Rank: 10Rank: 10Rank: 10

    积分
    806
    发表于 5 天前 | 显示全部楼层
    漂亮的漂!
    回复

    使用道具 举报

  • TA的每日心情
    开心
    3 小时前
  • 签到天数: 61 天

    [LV.6]常住居民II

    1

    主题

    529

    帖子

    159

    积分

    高级影迷

    Rank: 4

    积分
    159
    发表于 5 天前 | 显示全部楼层
    感谢楼主分享!
    回复

    使用道具 举报

  • TA的每日心情
    开心
    昨天 09:26
  • 签到天数: 178 天

    [LV.7]常住居民III

    1

    主题

    1662

    帖子

    115

    积分

    中级影迷

    Rank: 3Rank: 3

    积分
    115
    发表于 5 天前 | 显示全部楼层
    多谢分享!
    回复

    使用道具 举报

  • TA的每日心情
    奋斗
    昨天 13:31
  • 签到天数: 160 天

    [LV.7]常住居民III

    5

    主题

    740

    帖子

    47

    积分

    初级影迷

    Rank: 2

    积分
    47
    发表于 4 天前 | 显示全部楼层
    感谢分享      
    回复

    使用道具 举报

    您需要登录后才可以回帖 登录 | 立即注册

    本版积分规则

    QQ|Archiver|手机版|小黑屋|影迷乐园

    GMT+8, 2020-10-20 10:41 , Processed in 0.094396 second(s), 28 queries .

    Powered by Discuz! X3.4

    Copyright © 2001-2020, Tencent Cloud.

    快速回复 返回顶部 返回列表