请选择 进入手机版 | 继续访问电脑版

YMLY-影迷乐园-特效字幕 蓝光原盘 1080P 高清动漫电影电视剧

 找回密码
 立即注册
搜索
查看: 120|回复: 15

[日本] [115][2015][1080P][年龄歧视][日语.繁中字幕][武井咲.稻森泉][9集全][MKV][15.95GB][Age.Harassment.S01.1080p.KKTV.WEB-DL.AAC2.0.H264-Ao]

[复制链接]
  • TA的每日心情
    奋斗
    2020-2-21 00:36
  • 签到天数: 656 天

    [LV.9]以坛为家II

    7725

    主题

    9686

    帖子

    5万

    积分

    超级版主

    与齐同行,是最初的梦想,也是一辈子的执着~

    Rank: 16Rank: 16Rank: 16Rank: 16

    积分
    58495

    内测勋章最佳新人十二生肖之猴VIP包月勋章影迷男神小土豪勋章土豪勋章富甲一方精华勋章金话筒主题达人灌水之王

    发表于 5 天前 | 显示全部楼层 |阅读模式
    KKTV源,内封繁中软字幕!可自行选择和关闭字幕。


    下载说明:

    近期百度云和谐的厉害,本剧将采用115网盘的方式分享,只能115网盘会员接收并下载,购买前请看清楚,如需百度云链接请在站内短消息联系我,本人会抽空搬运至百度云网盘,但是需扣除10大洋(论坛币,每天做日常任务可获取)作为搬运费!


    ----转载自OurBits,感谢压制和原发布人员,特此鸣谢!----



    ◎译  名 年龄歧视 / Age Harassment / 年龄欺凌
    ◎片  名 エイジハラスメント
    ◎年  代 2015
    ◎产  地 日本
    ◎类  别 剧情
    ◎语  言 日语
    ◎上映日期 2015-07-09(日本)
    ◎IMDb评分  6.7/10 from 23 users
    ◎IMDb链接  https://www.imdb.com/title/tt4709624
    ◎豆瓣评分 6.1/10 from 3466 users
    ◎豆瓣链接 https://movie.douban.com/subject/26395044/
    ◎集  数 9
    ◎主  演 武井咲 Emi Takei
           稻森泉 Izumi Inamori
           濑户康史 Koji Seto
           要润 Jun Kaname
           内藤理沙 Risa Naitô
           原干惠 Mikie Hara
           杉本哲太 Tetta Sugimoto
           吹越满 Mitsuru Fukikoshi
           浅野和之 Kazuyuki Asano
           麻生祐未 Yumi Asô
           竹中直人 Naoto Takenaka
           风间杜夫 Morio Kazama
           小泉孝太郎 Kôtarô Koizumi
           广濑智纪 Tomoki Hirose
           森口瑶子 Yôko Moriguchi
           松井爱莉 Airi Matsui
           大东骏介 Shunsuke Daito
           秋月三佳 Mika Akizuki


    ◎标  签 日剧 | 武井咲 | 看过的电视剧 | 日本 | 15夏 | 小泉孝太郎 | 2015 | 日语标签

    ◎简  介  

      踌躇满志的职场新人吉井英美里(武井咲 饰)如愿加入大型综合商社帝都物产,可是她并未被分配到第一志愿的精英部门纤维一课,而是来到了一向被人轻视和嘲讽的总务部。总务部长高山彻太郎(竹中直人 饰)尽可能推诿责任,避免惹火烧身,次长浅野诚(吹越满 饰)则满嘴跑火车,对同事尤其是女性极其不尊重。而浅野的恶行似乎正是帝都物产长久以来的传统,女性无论多么能干都无法在这里创出天地,曾经担任纤维一课课长的大泽百合子(稻森泉 饰)正是这样一个可悲的牺牲品。更为可怕的是,公司内部的年龄歧视无处不在,面容姣好且青春靓丽的英美里,不知不觉成为大龄女性同事的眼中钉,此外更被迫卷入连绵的纠纷之中。倔强的英美里却不愿就此向各种不公低头……本片根据内馆牧子的小说改编。
    1. General
    2. Unique ID                      : 318089245047777204105096000236824303418 (0xEF4DC29CA19E78F72E39EF077EC8173A)
    3. Format                         : Matroska
    4. Format version                 : Version 4
    5. File size                      : 1.71 GiB
    6. Duration                       : 47 min 4 s
    7. Overall bit rate               : 5 209 kb/s
    8. Encoded date                   : UTC 2019-05-13 10:41:56
    9. Writing application            : mkvmerge v32.0.0 ('Astral Progressions') 64-bit
    10. Writing library                : libebml v1.3.7 + libmatroska v1.5.0

    11. Video
    12. ID                             : 1
    13. Format                         : AVC
    14. Format/Info                    : Advanced Video Codec
    15. Format profile                 : High@L4.1
    16. Format settings                : CABAC / 5 Ref Frames
    17. Format settings, CABAC         : Yes
    18. Format settings, Reference fra : 5 frames
    19. Codec ID                       : V_MPEG4/ISO/AVC
    20. Duration                       : 47 min 4 s
    21. Bit rate                       : 5 000 kb/s
    22. Width                          : 1 920 pixels
    23. Height                         : 1 080 pixels
    24. Display aspect ratio           : 16:9
    25. Frame rate mode                : Constant
    26. Frame rate                     : 29.970 (30000/1001) FPS
    27. Color space                    : YUV
    28. Chroma subsampling             : 4:2:0
    29. Bit depth                      : 8 bits
    30. Scan type                      : Progressive
    31. Bits/(Pixel*Frame)             : 0.080
    32. Stream size                    : 1.65 GiB (96%)
    33. Writing library                : x264 core 142
    34. Encoding settings              : cabac=1 / ref=5 / deblock=1:0:0 / analyse=0x3:0x113 / me=umh / subme=9 / psy=1 / psy_rd=1.00:0.00 / mixed_ref=1 / me_range=32 / chroma_me=1 / trellis=1 / 8x8dct=1 / cqm=0 / deadzone=21,11 / fast_pskip=1 / chroma_qp_offset=-2 / threads=6 / lookahead_threads=1 / sliced_threads=0 / nr=0 / decimate=1 / interlaced=0 / bluray_compat=0 / stitchable=1 / constrained_intra=0 / bframes=3 / b_pyramid=2 / b_adapt=1 / b_bias=0 / direct=3 / weightb=1 / open_gop=0 / weightp=2 / keyint=30 / keyint_min=3 / scenecut=0 / intra_refresh=0 / rc_lookahead=40 / rc=abr / mbtree=1 / bitrate=5000 / ratetol=1.0 / qcomp=0.60 / qpmin=0 / qpmax=69 / qpstep=4 / vbv_maxrate=7500 / vbv_bufsize=11250 / nal_hrd=none / filler=0 / ip_ratio=1.40 / aq=1:1.00
    35. Default                        : Yes
    36. Forced                         : No

    37. Audio
    38. ID                             : 2
    39. Format                         : AAC LC
    40. Format/Info                    : Advanced Audio Codec Low Complexity
    41. Codec ID                       : A_AAC-2
    42. Duration                       : 47 min 4 s
    43. Bit rate                       : 192 kb/s
    44. Channel(s)                     : 2 channels
    45. Channel layout                 : L R
    46. Sampling rate                  : 44.1 kHz
    47. Frame rate                     : 43.066 FPS (1024 SPF)
    48. Compression mode               : Lossy
    49. Stream size                    : 64.6 MiB (4%)
    50. Default                        : No
    51. Forced                         : No

    52. Text #1
    53. ID                             : 3
    54. Format                         : UTF-8
    55. Codec ID                       : S_TEXT/UTF8
    56. Codec ID/Info                  : UTF-8 Plain Text
    57. Duration                       : 45 min 47 s
    58. Bit rate                       : 99 b/s
    59. Count of elements              : 745
    60. Stream size                    : 33.3 KiB (0%)
    61. Language                       : Japanese
    62. Default                        : No
    63. Forced                         : No

    64. Text #2
    65. ID                             : 4
    66. Format                         : UTF-8
    67. Codec ID                       : S_TEXT/UTF8
    68. Codec ID/Info                  : UTF-8 Plain Text
    69. Duration                       : 47 min 3 s
    70. Bit rate                       : 69 b/s
    71. Count of elements              : 802
    72. Stream size                    : 24.1 KiB (0%)
    73. Language                       : Chinese
    74. Default                        : Yes
    75. Forced                         : No
    复制代码





    购买主题 已有 3 人购买  本主题需向作者支付 30 大洋 才能浏览
    郑重声明:
    本人提供的所有影视作品均是在网上搜集,任何涉及商业盈利目的均不得使用,否则产生的一切后果将由您自己承担!
    本人不对本人所发布的任何内容负任何法律责任!该下载内容仅做宽带测试使用,请在下载后24小时内删除。请购买正版!
    本人列出的文件没有保存在本站的服务器上,本人仅负责连接,本人对被传播文件的内容一无所知。
    如侵犯视频原作者或发行商版权,请联系本人删除!
    回复

    使用道具 举报

  • TA的每日心情
    开心
    11 小时前
  • 签到天数: 108 天

    [LV.6]常住居民II

    1

    主题

    1084

    帖子

    224

    积分

    高级影迷

    Rank: 4

    积分
    224
    发表于 5 天前 | 显示全部楼层
    谢谢楼主分享
    回复

    使用道具 举报

  • TA的每日心情
    开心
    1 小时前
  • 签到天数: 113 天

    [LV.6]常住居民II

    14

    主题

    1269

    帖子

    119

    积分

    中级影迷

    Rank: 3Rank: 3

    积分
    119
    发表于 5 天前 | 显示全部楼层
    感谢分享经典电视剧
    回复

    使用道具 举报

  • TA的每日心情
    开心
    昨天 07:06
  • 签到天数: 121 天

    [LV.7]常住居民III

    0

    主题

    282

    帖子

    31

    积分

    初级影迷

    Rank: 2

    积分
    31
    发表于 5 天前 | 显示全部楼层

    感谢分享
    回复

    使用道具 举报

  • TA的每日心情
    奋斗
    2 小时前
  • 签到天数: 163 天

    [LV.7]常住居民III

    15

    主题

    335

    帖子

    412

    积分

    超级影迷

    Rank: 6Rank: 6

    积分
    412
    发表于 5 天前 | 显示全部楼层
    10大洋专门搬运的话,确实好便宜
    回复

    使用道具 举报

  • TA的每日心情
    开心
    4 小时前
  • 签到天数: 81 天

    [LV.6]常住居民II

    1

    主题

    885

    帖子

    166

    积分

    高级影迷

    Rank: 4

    积分
    166
    发表于 5 天前 | 显示全部楼层
    感谢分享!
    回复

    使用道具 举报

  • TA的每日心情
    郁闷
    半小时前
  • 签到天数: 55 天

    [LV.5]常住居民I

    4

    主题

    590

    帖子

    182

    积分

    高级影迷

    Rank: 4

    积分
    182
    发表于 5 天前 | 显示全部楼层
    感谢分享!
    回复

    使用道具 举报

  • TA的每日心情
    奋斗
    3 小时前
  • 签到天数: 534 天

    [LV.9]以坛为家II

    38

    主题

    6097

    帖子

    806

    积分

    资深影迷

    Rank: 10Rank: 10Rank: 10

    积分
    806
    发表于 5 天前 | 显示全部楼层
    赞楼主!发布辛苦了。
    回复

    使用道具 举报

  • TA的每日心情
    开心
    4 小时前
  • 签到天数: 61 天

    [LV.6]常住居民II

    1

    主题

    529

    帖子

    159

    积分

    高级影迷

    Rank: 4

    积分
    159
    发表于 5 天前 | 显示全部楼层
    感谢楼主分享!
    回复

    使用道具 举报

  • TA的每日心情
    开心
    昨天 09:26
  • 签到天数: 178 天

    [LV.7]常住居民III

    1

    主题

    1662

    帖子

    115

    积分

    中级影迷

    Rank: 3Rank: 3

    积分
    115
    发表于 5 天前 | 显示全部楼层
    多谢分享!
    回复

    使用道具 举报

    您需要登录后才可以回帖 登录 | 立即注册

    本版积分规则

    QQ|Archiver|手机版|小黑屋|影迷乐园

    GMT+8, 2020-10-20 11:19 , Processed in 0.097450 second(s), 28 queries .

    Powered by Discuz! X3.4

    Copyright © 2001-2020, Tencent Cloud.

    快速回复 返回顶部 返回列表