请选择 进入手机版 | 继续访问电脑版

YMLY-影迷乐园-特效字幕 蓝光原盘 1080P 高清动漫电影电视剧

 找回密码
 立即注册
搜索
查看: 171|回复: 23

[香港] [百度][2014][1080P][使徒行者][国粤双语.繁中字幕][苗侨伟.佘诗曼][31集全][MKV][38.65GB]

[复制链接]
  • TA的每日心情
    奋斗
    2020-2-21 00:36
  • 签到天数: 656 天

    [LV.9]以坛为家II

    7725

    主题

    9686

    帖子

    5万

    积分

    超级版主

    与齐同行,是最初的梦想,也是一辈子的执着~

    Rank: 16Rank: 16Rank: 16Rank: 16

    积分
    58479

    内测勋章最佳新人十二生肖之猴VIP包月勋章影迷男神小土豪勋章土豪勋章富甲一方精华勋章金话筒主题达人灌水之王

    发表于 5 天前 | 显示全部楼层 |阅读模式
    下载说明:

    百度云网盘分享极其不稳定,如有链接失效,请第一时间站内短消息通知我,上线后会第一时间补发!请大家多多谅解!电驴链接只能115会员离线下载,其它工具都下载不了!




    ◎译  名 Line Walker
    ◎片  名 使徒行者
    ◎年  代 2014
    ◎产  地 中国香港
    ◎类  别 剧情 / 爱情 / 犯罪
    ◎语  言 粤语 / 汉语普通话
    ◎上映日期 2014-08-25(中国香港)
    ◎IMDb评分  7.5/10 from 119 users
    ◎IMDb链接  https://www.imdb.com/title/tt4089772
    ◎豆瓣评分 8.3/10 from 77685 users
    ◎豆瓣链接 https://movie.douban.com/subject/25708579/
    ◎集  数 30
    ◎片  长 45分钟
    ◎导  演 文伟鸿 Jazz Boon
    ◎编  剧 叶天成 Tin-Shing Yip / 伍立光 Lap Kwong Ng
    ◎主  演 苗侨伟 Kiu Wai Miu
           佘诗曼 Charmaine Sheh
           林峯 Raymond Lam
           沈震轩 Sammy Sum
           陈敏之 Man Chi Chan
           江美仪 Elena Kong
           许绍雄 Siu-Hung Hui
           高海宁 Samantha Ko
           梁竞徽 Oscar Leung
           邓健泓 Patrick Tang
           黄祥兴 Stephen Huynh
           刘江 Kong Lau
           梁靖琪 Toby Leung
           韩马利 Mary Hon Ma-Li
           吕珊 Rosanne Lui
           苏恩磁 Ceci So Yan Chee
           陈倩扬 Skye Chan
           欧瑞伟 Jimmy Au
           彭怀安 Eddie Pang
           李海生 Hoi Sang Lee
           李冈龙 Eddie Li
           林伟 Vincent Lam
           何启南 Kai-Nam Ho
           张振朗 Owen Cheung
           张国强 Kwok Keung Cheung
           贝安琪 Ankie Beilke
           罗乐林 Lok Lam Law
           焦浩轩 Ho-Hin Chiu
           陈靖云 Clare Chan
           林秀怡 Kirby Lam
           陈颍熙 Niki Chan
           黄匡翘 Hong-Kiu Wong
           卢峻峯 Alvis Lo
           曾敏 Judy Tsang
           叶炜 Adam Ip
           蔡康年 Miguel Choi
           陈俊坚 Kinlas Chan
           李旻芳 Lucy Li
           谢文欣 Ally Tse
           刘嘉琪 Kanice Lau
           周宝霖 Pauline Chow
           李伟健 Kim Li
           陈志健 Otto Chan Chi-Kin
           郑世豪 Hoffman Cheng
           陈芷尤 Apple Chan
           司徒晖 Louis SzeTo
           赵璧渝 Osanna Chiu
           李泳豪 Gregory Lee
           何广沛 Matthew Ho


    ◎标  签 TVB | 港剧 | 林峰 | 佘诗曼 | 警匪 | 香港 | 苗侨伟 | 2014

    ◎简  介  

      出身香港社会最底层的丁小嘉(佘诗曼 饰)在考上警察后,又以卧底的身份重回鱼龙混杂的砵兰街,替CID督查康道行(欧瑞伟 饰)搜集情报。谁知在追查三合会头目游达富的犯罪事实过程中,道行意外遇害身亡。他在临死前为防止手下卧底人员身份暴露,而删除了包括小嘉在内等五名卧底的纪录。在此之后,道行的同袍刑事情报科总督察卓凯(苗侨伟 饰)联系到小嘉,希望其能协助找到其他四名卧底,并掌握外围赌博集团的犯罪证据。在此之后,小嘉和赌博集团的得力干将薛家强(林峯 饰)发生交集,更由此陷入警方与犯罪团伙、黑帮组织之间的连番对决和火并之中,由此上演了一段令人拍案叫绝的卧底传奇……
    1. General
    2. Unique ID                      : 151901047214160259360214912899088392741 (0x724713D9C007761B5D2A740A90502225)
    3. Format                         : Matroska
    4. Format version                 : Version 4
    5. File size                      : 1.33 GiB
    6. Duration                       : 43 min 32 s
    7. Overall bit rate               : 4 362 kb/s
    8. Encoded date                   : UTC 2020-01-16 19:50:21
    9. Writing application            : mkvmerge v25.0.0 ('Prog Noir') 64-bit
    10. Writing library                : libebml v1.3.6 + libmatroska v1.4.9

    11. Video
    12. ID                             : 1
    13. Format                         : AVC
    14. Format/Info                    : Advanced Video Codec
    15. Format profile                 : High@L4.1
    16. Format settings                : CABAC / 5 Ref Frames
    17. Format settings, CABAC         : Yes
    18. Format settings, Reference fra : 5 frames
    19. Codec ID                       : V_MPEG4/ISO/AVC
    20. Duration                       : 43 min 32 s
    21. Bit rate                       : 4 078 kb/s
    22. Width                          : 1 920 pixels
    23. Height                         : 1 080 pixels
    24. Display aspect ratio           : 16:9
    25. Frame rate mode                : Constant
    26. Frame rate                     : 29.970 (30000/1001) FPS
    27. Color space                    : YUV
    28. Chroma subsampling             : 4:2:0
    29. Bit depth                      : 8 bits
    30. Scan type                      : Progressive
    31. Bits/(Pixel*Frame)             : 0.066
    32. Stream size                    : 1.23 GiB (93%)
    33. Writing library                : x264 core 142
    34. Encoding settings              : cabac=1 / ref=5 / deblock=1:0:0 / analyse=0x3:0x113 / me=umh / subme=9 / psy=1 / psy_rd=1.00:0.00 / mixed_ref=1 / me_range=32 / chroma_me=1 / trellis=1 / 8x8dct=1 / cqm=0 / deadzone=21,11 / fast_pskip=1 / chroma_qp_offset=-2 / threads=6 / lookahead_threads=1 / sliced_threads=0 / nr=0 / decimate=1 / interlaced=0 / bluray_compat=0 / stitchable=1 / constrained_intra=0 / bframes=3 / b_pyramid=2 / b_adapt=1 / b_bias=0 / direct=3 / weightb=1 / open_gop=0 / weightp=2 / keyint=30 / keyint_min=3 / scenecut=0 / intra_refresh=0 / rc_lookahead=40 / rc=abr / mbtree=1 / bitrate=4078 / ratetol=1.0 / qcomp=0.60 / qpmin=0 / qpmax=69 / qpstep=4 / vbv_maxrate=6117 / vbv_bufsize=9175 / nal_hrd=none / filler=0 / ip_ratio=1.40 / aq=1:1.00
    35. Default                        : Yes
    36. Forced                         : No

    37. Audio #1
    38. ID                             : 2
    39. Format                         : AAC LC
    40. Format/Info                    : Advanced Audio Codec Low Complexity
    41. Codec ID                       : A_AAC-2
    42. Duration                       : 43 min 32 s
    43. Bit rate                       : 126 kb/s
    44. Channel(s)                     : 2 channels
    45. Channel layout                 : L R
    46. Sampling rate                  : 44.1 kHz
    47. Frame rate                     : 43.066 FPS (1024 SPF)
    48. Compression mode               : Lossy
    49. Stream size                    : 39.1 MiB (3%)
    50. Default                        : Yes
    51. Forced                         : Yes

    52. Audio #2
    53. ID                             : 3
    54. Format                         : AAC LC
    55. Format/Info                    : Advanced Audio Codec Low Complexity
    56. Codec ID                       : A_AAC-2
    57. Duration                       : 43 min 32 s
    58. Bit rate                       : 192 kb/s
    59. Channel(s)                     : 2 channels
    60. Channel layout                 : L R
    61. Sampling rate                  : 44.1 kHz
    62. Frame rate                     : 43.066 FPS (1024 SPF)
    63. Compression mode               : Lossy
    64. Stream size                    : 59.8 MiB (4%)
    65. Default                        : No
    66. Forced                         : No

    67. Text
    68. ID                             : 4
    69. Format                         : UTF-8
    70. Codec ID                       : S_TEXT/UTF8
    71. Codec ID/Info                  : UTF-8 Plain Text
    72. Duration                       : 40 min 59 s
    73. Bit rate                       : 77 b/s
    74. Count of elements              : 841
    75. Stream size                    : 23.1 KiB (0%)
    76. Default                        : Yes
    77. Forced                         : Yes
    复制代码




    购买主题 已有 12 人购买  本主题需向作者支付 50 大洋 才能浏览
    郑重声明:
    本人提供的所有影视作品均是在网上搜集,任何涉及商业盈利目的均不得使用,否则产生的一切后果将由您自己承担!
    本人不对本人所发布的任何内容负任何法律责任!该下载内容仅做宽带测试使用,请在下载后24小时内删除。请购买正版!
    本人列出的文件没有保存在本站的服务器上,本人仅负责连接,本人对被传播文件的内容一无所知。
    如侵犯视频原作者或发行商版权,请联系本人删除!
    回复

    使用道具 举报

  • TA的每日心情
    开心
    11 小时前
  • 签到天数: 108 天

    [LV.6]常住居民II

    1

    主题

    1084

    帖子

    224

    积分

    高级影迷

    Rank: 4

    积分
    224
    发表于 5 天前 | 显示全部楼层
    谢谢楼主分享
    回复

    使用道具 举报

  • TA的每日心情
    开心
    1 小时前
  • 签到天数: 113 天

    [LV.6]常住居民II

    14

    主题

    1269

    帖子

    119

    积分

    中级影迷

    Rank: 3Rank: 3

    积分
    119
    发表于 5 天前 | 显示全部楼层
    感谢分享经典电视剧
    回复

    使用道具 举报

  • TA的每日心情
    开心
    昨天 07:06
  • 签到天数: 121 天

    [LV.7]常住居民III

    0

    主题

    282

    帖子

    31

    积分

    初级影迷

    Rank: 2

    积分
    31
    发表于 5 天前 | 显示全部楼层

    感谢分享
    回复

    使用道具 举报

  • TA的每日心情
    无聊
    3 小时前
  • 签到天数: 1207 天

    [LV.10]以坛为家III

    63

    主题

    2051

    帖子

    924

    积分

    资深影迷

    Rank: 10Rank: 10Rank: 10

    积分
    924
    发表于 5 天前 | 显示全部楼层
    正好可以重温一下
    回复

    使用道具 举报

  • TA的每日心情
    开心
    2020-9-30 11:56
  • 签到天数: 43 天

    [LV.5]常住居民I

    0

    主题

    186

    帖子

    331

    积分

    超级影迷

    Rank: 6Rank: 6

    积分
    331
    发表于 5 天前 | 显示全部楼层
    多谢分享!多谢龙哥
    回复

    使用道具 举报

  • TA的每日心情
    开心
    4 小时前
  • 签到天数: 81 天

    [LV.6]常住居民II

    1

    主题

    885

    帖子

    166

    积分

    高级影迷

    Rank: 4

    积分
    166
    发表于 5 天前 | 显示全部楼层
    感谢分享!
    回复

    使用道具 举报

  • TA的每日心情
    开心
    3 小时前
  • 签到天数: 38 天

    [LV.5]常住居民I

    0

    主题

    86

    帖子

    52

    积分

    初级影迷

    Rank: 2

    积分
    52
    发表于 5 天前 | 显示全部楼层
    这个资源太好了
    回复

    使用道具 举报

  • TA的每日心情
    郁闷
    半小时前
  • 签到天数: 55 天

    [LV.5]常住居民I

    4

    主题

    590

    帖子

    182

    积分

    高级影迷

    Rank: 4

    积分
    182
    发表于 5 天前 | 显示全部楼层
    感谢分享!
    回复

    使用道具 举报

  • TA的每日心情
    开心
    2020-6-19 05:11
  • 签到天数: 3 天

    [LV.2]偶尔看看I

    0

    主题

    44

    帖子

    42

    积分

    初级影迷

    Rank: 2

    积分
    42
    发表于 5 天前 | 显示全部楼层
    感谢分享好剧
    回复

    使用道具 举报

    您需要登录后才可以回帖 登录 | 立即注册

    本版积分规则

    QQ|Archiver|手机版|小黑屋|影迷乐园

    GMT+8, 2020-10-20 11:00 , Processed in 0.106609 second(s), 28 queries .

    Powered by Discuz! X3.4

    Copyright © 2001-2020, Tencent Cloud.

    快速回复 返回顶部 返回列表