请选择 进入手机版 | 继续访问电脑版

YMLY-影迷乐园-特效字幕 蓝光原盘 1080P 高清动漫电影电视剧

 找回密码
 立即注册
搜索
查看: 227|回复: 23

[香港] [115+百度][2017][1080P][使徒行者2.第二季][国粤双语.繁中字幕][苗侨伟.陈豪][30集全][MKV][31.12GB][Line.Walker.The.Prelude.S02.1080p.KKTV.WEB-DL.AAC2.0.x264-Ao]

[复制链接]
  • TA的每日心情
    奋斗
    2020-2-21 00:36
  • 签到天数: 656 天

    [LV.9]以坛为家II

    7814

    主题

    9809

    帖子

    5万

    积分

    超级版主

    与齐同行,是最初的梦想,也是一辈子的执着~

    Rank: 16Rank: 16Rank: 16Rank: 16

    积分
    55698

    内测勋章最佳新人十二生肖之猴VIP包月勋章影迷男神小土豪勋章土豪勋章富甲一方精华勋章金话筒主题达人灌水之王

    发表于 2020-10-15 06:49:54 | 显示全部楼层 |阅读模式
    KKTV源,内封繁中软字幕!可自行选择和关闭字幕。


    下载说明:

    百度网盘分享极其不稳定,如有链接失效,请第一时间站内短消息通知我,上线后会第一时间补发!请大家多多谅解!电驴链接只能115会员离线下载,其它工具都下载不了!


    ----转载自OurBits,感谢压制和原发布人员,特此鸣谢!----



    ◎译  名 Line Walker 2/Line Walker: The Prelude
    ◎片  名 使徒行者2
    ◎年  代 2017
    ◎产  地 中国大陆,中国香港
    ◎类  别 剧情 / 爱情 / 犯罪
    ◎语  言 粤语
    ◎上映日期 2017-09-18(中国大陆)
    ◎IMDb评分  6.2/10 from 8 users
    ◎IMDb链接  https://www.imdb.com/title/tt10980808/
    ◎豆瓣评分 6.9/10 from 35702 users
    ◎豆瓣链接 https://movie.douban.com/subject/26661003/
    ◎集  数 30
    ◎片  长 43分钟
    ◎导  演 苏万聪 Man Chung So / 苏嘉敏 Carmen So
    ◎编  剧 叶天成 Tin-Shing Yip / 黎倩仪 Steffie Lai / 苏万聪 Man Chung So
    ◎主  演 苗侨伟 Kiu Wai Miu
           陈豪 Moses Chan
           宣萱 Jessica Hester Hsuan
           袁伟豪 Wai-Ho Yung
           周柏豪  Pakho Chau
           黄翠如 Priscilla Wong
           许绍雄 Siu-Hung Hui
           麦明诗 Louisa Mak
           何佩珉 Mandy Ho
           邱芷微 Chelffy Yau
           周丽欣 Doris Chow
           陈嘉俊 Vincent
           杨潮凯 Chiu Hoi Yeung
           欧瑞伟 Jimmy Au
           张智轩 Russell Cheung
           刘嘉琪 Kanice Lau
           李嘉 Oscar Li
           白云 Snowy Bai
           陈国峰 Penny Chan
           黄颖君 Burmie Wong
           黄耀煌 Terrence Wong
           陈靖云 Clare Chan
           阮儿 Chloe Nguyen
           招浩明 Edsel Chiu
           林远迎 Jason Lam
           张宝儿 Bowie Cheung
           张兆辉 Siu-Fai Cheung
           邓梓峰 Chi-Fung Tang
           张景淳 Stanley Cheung King Shun
           洪永城 Tony Hung
           李彩宁 Choi-ning Lee
           魏焌皓 Nathan Ngai
           林伟 Vincent Lam
           郑恕峰 Shu Fung Cheng
           蒋祖曼 Joman Chiang
           陈炜 Alice Chan

    ◎标  签 TVB | 港剧 | 卧底 | 香港 | 犯罪 | 2017 | 电视剧 | 剧情

    ◎简  介

      刑事情报高级督察卓凯(苗侨伟 饰)现身泰国曼谷,在当地获得重要情报:九指强与泰国倪坤进行毒品交易。追查之后发现吉运帮黑吃黑将倪坤杀死与九指强进行交易。为寻找吉运帮犯罪证据卓凯与卧底潜入社团窝点后被Pak Key得力手下乐少锋(周柏豪 饰)发现行动,和他们交起手来。逃脱之后卓凯一行人准备离开泰国返回香港时发生一场大爆炸,除了卓凯之外的所有卧底葬身火海。伤心欲绝的卓凯返回香港后面临停职,变得一蹶不振。与此同时香港最大的社团长兴发生内斗,长兴新继任的龙头魏德信(陈豪 饰)以雷厉风行手段剿灭社团的高级头目,其中包括覃欢喜(许绍雄 饰)。然而覃欢喜是长期潜伏在长兴的卧底,面临此番处境,他曾想过向Handler求助调回警察队伍,但妻子突然出事惨死在社团人士手中,令覃欢喜彻底沦入黑道。
    1. General
    2. Unique ID                      : 176717280120935334234498677567098994598 (0x84F2829907C44533A6EB83A6298C3FA6)
    3. Format                         : Matroska
    4. Format version                 : Version 4
    5. File size                      : 1.01 GiB
    6. Duration                       : 43 min 2 s
    7. Overall bit rate               : 3 357 kb/s
    8. Encoded date                   : UTC 2020-01-13 07:06:52
    9. Writing application            : mkvmerge v31.0.0 ('Dolores In A Shoestand') 64-bit
    10. Writing library                : libebml v1.3.6 + libmatroska v1.4.9

    11. Video
    12. ID                             : 1
    13. Format                         : AVC
    14. Format/Info                    : Advanced Video Codec
    15. Format profile                 : High@L4.1
    16. Format settings                : CABAC / 5 Ref Frames
    17. Format settings, CABAC         : Yes
    18. Format settings, Reference fra : 5 frames
    19. Codec ID                       : V_MPEG4/ISO/AVC
    20. Duration                       : 43 min 2 s
    21. Bit rate                       : 3 012 kb/s
    22. Width                          : 1 920 pixels
    23. Height                         : 1 080 pixels
    24. Display aspect ratio           : 16:9
    25. Frame rate mode                : Constant
    26. Frame rate                     : 29.970 (30000/1001) FPS
    27. Color space                    : YUV
    28. Chroma subsampling             : 4:2:0
    29. Bit depth                      : 8 bits
    30. Scan type                      : Progressive
    31. Bits/(Pixel*Frame)             : 0.048
    32. Stream size                    : 934 MiB (90%)
    33. Writing library                : x264 core 142
    34. Encoding settings              : cabac=1 / ref=5 / deblock=1:0:0 / analyse=0x3:0x113 / me=umh / subme=9 / psy=1 / psy_rd=1.00:0.00 / mixed_ref=1 / me_range=32 / chroma_me=1 / trellis=1 / 8x8dct=1 / cqm=0 / deadzone=21,11 / fast_pskip=1 / chroma_qp_offset=-2 / threads=6 / lookahead_threads=1 / sliced_threads=0 / nr=0 / decimate=1 / interlaced=0 / bluray_compat=0 / stitchable=1 / constrained_intra=0 / bframes=3 / b_pyramid=2 / b_adapt=1 / b_bias=0 / direct=3 / weightb=1 / open_gop=0 / weightp=2 / keyint=30 / keyint_min=3 / scenecut=0 / intra_refresh=0 / rc_lookahead=40 / rc=abr / mbtree=1 / bitrate=3012 / ratetol=1.0 / qcomp=0.60 / qpmin=0 / qpmax=69 / qpstep=4 / vbv_maxrate=4518 / vbv_bufsize=6777 / nal_hrd=none / filler=0 / ip_ratio=1.40 / aq=1:1.00
    35. Language                       : English
    36. Default                        : Yes
    37. Forced                         : No

    38. Audio #1
    39. ID                             : 2
    40. Format                         : AAC LC
    41. Format/Info                    : Advanced Audio Codec Low Complexity
    42. Codec ID                       : A_AAC-2
    43. Duration                       : 43 min 2 s
    44. Bit rate                       : 192 kb/s
    45. Channel(s)                     : 2 channels
    46. Channel layout                 : L R
    47. Sampling rate                  : 44.1 kHz
    48. Frame rate                     : 43.066 FPS (1024 SPF)
    49. Compression mode               : Lossy
    50. Stream size                    : 59.1 MiB (6%)
    51. Title                          : Cantonese
    52. Language                       : Chinese
    53. Default                        : No
    54. Forced                         : No

    55. Audio #2
    56. ID                             : 3
    57. Format                         : AAC LC
    58. Format/Info                    : Advanced Audio Codec Low Complexity
    59. Codec ID                       : A_AAC-2
    60. Duration                       : 43 min 2 s
    61. Bit rate                       : 129 kb/s
    62. Channel(s)                     : 2 channels
    63. Channel layout                 : L R
    64. Sampling rate                  : 44.1 kHz
    65. Frame rate                     : 43.066 FPS (1024 SPF)
    66. Compression mode               : Lossy
    67. Stream size                    : 39.7 MiB (4%)
    68. Title                          : Mandarin
    69. Language                       : Chinese
    70. Default                        : Yes
    71. Forced                         : No

    72. Text
    73. ID                             : 4
    74. Format                         : UTF-8
    75. Codec ID                       : S_TEXT/UTF8
    76. Codec ID/Info                  : UTF-8 Plain Text
    77. Duration                       : 40 min 45 s
    78. Bit rate                       : 54 b/s
    79. Count of elements              : 576
    80. Stream size                    : 16.3 KiB (0%)
    81. Language                       : Chinese
    82. Default                        : Yes
    83. Forced                         : No
    复制代码




    购买主题 已有 9 人购买  本主题需向作者支付 40 大洋 才能浏览
    郑重声明:
    本人提供的所有影视作品均是在网上搜集,任何涉及商业盈利目的均不得使用,否则产生的一切后果将由您自己承担!
    本人不对本人所发布的任何内容负任何法律责任!该下载内容仅做宽带测试使用,请在下载后24小时内删除。请购买正版!
    本人列出的文件没有保存在本站的服务器上,本人仅负责连接,本人对被传播文件的内容一无所知。
    如侵犯视频原作者或发行商版权,请联系本人删除!
    回复

    使用道具 举报

  • TA的每日心情
    开心
    15 小时前
  • 签到天数: 115 天

    [LV.6]常住居民II

    1

    主题

    1164

    帖子

    239

    积分

    高级影迷

    Rank: 4

    积分
    239
    发表于 2020-10-15 07:10:25 | 显示全部楼层
    谢谢楼主分享
    回复

    使用道具 举报

  • TA的每日心情
    开心
    7 小时前
  • 签到天数: 117 天

    [LV.6]常住居民II

    17

    主题

    1295

    帖子

    127

    积分

    中级影迷

    Rank: 3Rank: 3

    积分
    127
    发表于 2020-10-15 07:13:17 | 显示全部楼层
    感谢分享经典电视剧
    回复

    使用道具 举报

  • TA的每日心情
    开心
    14 小时前
  • 签到天数: 130 天

    [LV.7]常住居民III

    0

    主题

    310

    帖子

    27

    积分

    初级影迷

    Rank: 2

    积分
    27
    发表于 2020-10-15 07:16:31 | 显示全部楼层

    感谢分享
    回复

    使用道具 举报

  • TA的每日心情
    无聊
    14 小时前
  • 签到天数: 1214 天

    [LV.10]以坛为家III

    63

    主题

    2062

    帖子

    961

    积分

    资深影迷

    Rank: 10Rank: 10Rank: 10

    积分
    961
    发表于 2020-10-15 08:36:28 | 显示全部楼层
    简介是第一部的,第二部没林峯了

    点评

    多谢提醒,已修正~  发表于 2020-10-15 08:59
    回复

    使用道具 举报

  • TA的每日心情
    开心
    2020-9-30 11:56
  • 签到天数: 43 天

    [LV.5]常住居民I

    0

    主题

    191

    帖子

    331

    积分

    超级影迷

    Rank: 6Rank: 6

    积分
    331
    发表于 2020-10-15 08:41:29 | 显示全部楼层
    多谢分享!
    回复

    使用道具 举报

  • TA的每日心情
    开心
    14 小时前
  • 签到天数: 88 天

    [LV.6]常住居民II

    1

    主题

    967

    帖子

    187

    积分

    高级影迷

    Rank: 4

    积分
    187
    发表于 2020-10-15 08:44:20 | 显示全部楼层
    感谢分享!
    回复

    使用道具 举报

  • TA的每日心情
    奋斗
    半小时前
  • 签到天数: 63 天

    [LV.6]常住居民II

    5

    主题

    670

    帖子

    224

    积分

    高级影迷

    Rank: 4

    积分
    224
    发表于 2020-10-15 09:51:51 | 显示全部楼层
    感谢分享!
    回复

    使用道具 举报

  • TA的每日心情
    开心
    11 小时前
  • 签到天数: 184 天

    [LV.7]常住居民III

    1

    主题

    1735

    帖子

    115

    积分

    中级影迷

    Rank: 3Rank: 3

    积分
    115
    发表于 2020-10-15 13:40:36 | 显示全部楼层
    多谢分享!
    回复

    使用道具 举报

  • TA的每日心情

    5 天前
  • 签到天数: 32 天

    [LV.5]常住居民I

    0

    主题

    74

    帖子

    6

    积分

    入门影迷

    Rank: 1

    积分
    6
    发表于 2020-10-15 18:04:43 | 显示全部楼层
    谢谢楼主分享
    回复

    使用道具 举报

    您需要登录后才可以回帖 登录 | 立即注册

    本版积分规则

    QQ|Archiver|手机版|小黑屋|影迷乐园

    GMT+8, 2020-10-29 22:02 , Processed in 0.075835 second(s), 29 queries .

    Powered by Discuz! X3.4

    Copyright © 2001-2020, Tencent Cloud.

    快速回复 返回顶部 返回列表