请选择 进入手机版 | 继续访问电脑版

YMLY-影迷乐园-特效字幕 蓝光原盘 1080P 高清动漫电影电视剧

 找回密码
 立即注册
搜索
查看: 114|回复: 18

[大陆] [115+百度][2005][1080P][风云2][国语中字][赵文卓.何润东][42集全][MP4][21.52GB]

[复制链接]
  • TA的每日心情
    奋斗
    2020-2-21 00:36
  • 签到天数: 656 天

    [LV.9]以坛为家II

    8125

    主题

    1万

    帖子

    6万

    积分

    超级版主

    与齐同行,是最初的梦想,也是一辈子的执着~

    Rank: 16Rank: 16Rank: 16Rank: 16

    积分
    62683

    内测勋章最佳新人十二生肖之猴VIP包月勋章影迷男神小土豪勋章土豪勋章富甲一方精华勋章金话筒主题达人灌水之王

    发表于 6 天前 | 显示全部楼层 |阅读模式
    下载说明:

    百度云网盘分享极其不稳定,如有链接失效,请第一时间站内短消息通知我,上线后会第一时间补发!请大家多多谅解!电驴链接只能115会员离线下载,其它工具都下载不了!




    ◎译  名 The Storm Riders 2/风云II
    ◎片  名 风云2
    ◎年  代 2005
    ◎产  地 中国大陆
    ◎类  别 剧情 / 武侠
    ◎语  言 汉语普通话
    ◎上映日期 2005
    ◎IMDb评分  6.2/10 from 46 users
    ◎IMDb链接  https://www.imdb.com/title/tt0984170/
    ◎豆瓣评分 6.4/10 from 10363 users
    ◎豆瓣链接 https://movie.douban.com/subject/5355142/
    ◎集  数 42
    ◎导  演 李惠民 Raymond Lee
    ◎编  剧 关展博 Edwin Chin-Pok Kwan / 陈丽华 Vera Lai-Wah Chan / 陈惠妍 Hui-yan Chen
    ◎主  演 赵文卓 Man Cheuk Chiu
           何润东 Peter Ho
           冯绍峰 Shaofeng Feng
           黄奕 Yi Huang
           秦岚 Lan Qin
           孙兴 Hing Suen
           李立群 Lichun Lee
           陈冠霖 Chen Guan Lin
           郑国霖 Guolin Zheng
           陈怡蓉 Tammy Chen
           韦以丞 Ethan Wei
           李馨雨 Xinyu Li
           刘卫华 Weihua Liu
           黄家诺 Jimmy Ga Lok Wong
           杨蕊 Rui Yang
           潘虹 Hung Poon
           王翔弘 Xianghong Wang
           岳跃利 Yueli Yue
           张植绿 Zhilü Zhang
           金书贵 Shugui Jin
           朱虹 Hong Zhu
           宗晓军 Xiao-jun Zong
           韩振华 Zhenhua Han
           姬麒麟 Qilin Ji
           戴兆安 Zhaoan Dai
           郭小安 Xiao'an Guo
           李娟妹 Juanmei Li
           刘建荣 Jianrong Liu
           杨树 Yang Shu

    ◎标  签 武侠 | 古装 | 电视剧 | 国产电视剧 | 看过的电视剧 | 赵文卓 | 何润东 | 华语标签

    ◎简  介

      聂风(赵文卓 饰)依旧被魔性控制着心智,并因此同步惊云(何润东 饰)展开了一场恶战,势均力敌的两人一时间难以分出高下,双双跌落山崖,聂风因此而恢复了本性,而步惊云却就此失去了音讯。聂风本以为步惊云已死,谁知他漂流到了一个小小渔村之中,被盲女紫凝(陈怡蓉 饰)和她的父亲救起,并且在机缘巧合之下得到了绝世神剑。
      江湖之中,风云再起,邪恶帮派天门派汇聚了天下各路能人高手,帝释天(韦以丞 饰)身为掌门,却有着不为人知的的过去和极为神秘的身世,原来,他就是传说中替皇帝寻找长生不老之药的徐福(李立群 饰),偷吃了神丹“凤元”,拥有了不死之生命,如今,有关“龙元”的传闻在江湖之中闹得沸沸扬扬,帝释天发誓绝不会让此物落入他人手中。
    1. General
    2. Format                         : MPEG-4
    3. Format profile                 : Base Media
    4. Codec ID                       : isom (isom/iso2/avc1/mp41)
    5. File size                      : 581 MiB
    6. Duration                       : 47 min 48 s
    7. Overall bit rate               : 1 699 kb/s
    8. Writing application            : Lavf56.40.100

    9. Video
    10. ID                             : 1
    11. Format                         : AVC
    12. Format/Info                    : Advanced Video Codec
    13. Format profile                 : High@L4
    14. Format settings                : CABAC / 4 Ref Frames
    15. Format settings, CABAC         : Yes
    16. Format settings, Reference fra : 4 frames
    17. Codec ID                       : avc1
    18. Codec ID/Info                  : Advanced Video Coding
    19. Duration                       : 47 min 48 s
    20. Bit rate                       : 1 565 kb/s
    21. Width                          : 1 416 pixels
    22. Height                         : 1 080 pixels
    23. Display aspect ratio           : 4:3
    24. Frame rate mode                : Variable
    25. Frame rate                     : 25.000 FPS
    26. Minimum frame rate             : 8.815 FPS
    27. Maximum frame rate             : 25.000 FPS
    28. Color space                    : YUV
    29. Chroma subsampling             : 4:2:0
    30. Bit depth                      : 8 bits
    31. Scan type                      : Progressive
    32. Bits/(Pixel*Frame)             : 0.041
    33. Stream size                    : 535 MiB (92%)
    34. Codec configuration box        : avcC

    35. Audio
    36. ID                             : 2
    37. Format                         : AAC LC
    38. Format/Info                    : Advanced Audio Codec Low Complexity
    39. Codec ID                       : mp4a-40-2
    40. Duration                       : 47 min 48 s
    41. Bit rate mode                  : Constant
    42. Bit rate                       : 128 kb/s
    43. Channel(s)                     : 2 channels
    44. Channel layout                 : L R
    45. Sampling rate                  : 44.1 kHz
    46. Frame rate                     : 43.066 FPS (1024 SPF)
    47. Compression mode               : Lossy
    48. Stream size                    : 43.8 MiB (8%)
    49. Default                        : Yes
    50. Alternate group                : 1
    复制代码






    购买主题 已有 3 人购买  本主题需向作者支付 30 大洋 才能浏览
    郑重声明:
    本人提供的所有影视作品均是在网上搜集,任何涉及商业盈利目的均不得使用,否则产生的一切后果将由您自己承担!
    本人不对本人所发布的任何内容负任何法律责任!该下载内容仅做宽带测试使用,请在下载后24小时内删除。请购买正版!
    本人列出的文件没有保存在本站的服务器上,本人仅负责连接,本人对被传播文件的内容一无所知。
    如侵犯视频原作者或发行商版权,请联系本人删除!
    回复

    使用道具 举报

  • TA的每日心情
    开心
    昨天 11:25
  • 签到天数: 11 天

    [LV.3]偶尔看看II

    1

    主题

    48

    帖子

    8

    积分

    入门影迷

    Rank: 1

    积分
    8
    发表于 5 天前 | 显示全部楼层
    非常感谢楼主的分享!
    回复

    使用道具 举报

  • TA的每日心情
    开心
    昨天 02:03
  • 签到天数: 94 天

    [LV.6]常住居民II

    3

    主题

    902

    帖子

    265

    积分

    超级影迷

    Rank: 6Rank: 6

    积分
    265

    小土豪勋章

    发表于 5 天前 | 显示全部楼层
    感谢楼主分享!
    回复

    使用道具 举报

  • TA的每日心情
    开心
    昨天 07:43
  • 签到天数: 114 天

    [LV.6]常住居民II

    1

    主题

    1276

    帖子

    229

    积分

    高级影迷

    Rank: 4

    积分
    229
    发表于 5 天前 | 显示全部楼层
    感谢分享!
    回复

    使用道具 举报

  • TA的每日心情
    开心
    昨天 08:16
  • 签到天数: 138 天

    [LV.7]常住居民III

    18

    主题

    1492

    帖子

    162

    积分

    高级影迷

    Rank: 4

    积分
    162
    发表于 5 天前 | 显示全部楼层
    感谢分享,支持一下
    回复

    使用道具 举报

  • TA的每日心情
    奋斗
    3 天前
  • 签到天数: 18 天

    [LV.4]偶尔看看III

    20

    主题

    291

    帖子

    168

    积分

    高级影迷

    Rank: 4

    积分
    168
    发表于 5 天前 | 显示全部楼层
    嘻嘻嘻嘻嘻嘻嘻嘻寻寻寻寻寻寻
    回复

    使用道具 举报

  • TA的每日心情
    开心
    昨天 09:06
  • 签到天数: 40 天

    [LV.5]常住居民I

    0

    主题

    527

    帖子

    32

    积分

    初级影迷

    Rank: 2

    积分
    32
    发表于 5 天前 | 显示全部楼层
    感谢楼主分享!
    回复

    使用道具 举报

  • TA的每日心情
    奋斗
    昨天 13:47
  • 签到天数: 86 天

    [LV.6]常住居民II

    7

    主题

    923

    帖子

    267

    积分

    超级影迷

    Rank: 6Rank: 6

    积分
    267
    发表于 5 天前 | 显示全部楼层
    感谢楼主分享!
    回复

    使用道具 举报

  • TA的每日心情

    昨天 09:09
  • 签到天数: 226 天

    [LV.7]常住居民III

    3

    主题

    1187

    帖子

    300

    积分

    超级影迷

    Rank: 6Rank: 6

    积分
    300

    小土豪勋章

    发表于 5 天前 | 显示全部楼层
    感谢分享!
    回复

    使用道具 举报

  • TA的每日心情

    昨天 08:46
  • 签到天数: 11 天

    [LV.3]偶尔看看II

    0

    主题

    105

    帖子

    13

    积分

    入门影迷

    Rank: 1

    积分
    13
    发表于 5 天前 | 显示全部楼层
    谢谢楼主分享啊
    回复

    使用道具 举报

    您需要登录后才可以回帖 登录 | 立即注册

    本版积分规则

    QQ|Archiver|手机版|小黑屋|影迷乐园

    GMT+8, 2020-11-25 01:56 , Processed in 0.068225 second(s), 28 queries .

    Powered by Discuz! X3.4

    Copyright © 2001-2020, Tencent Cloud.

    快速回复 返回顶部 返回列表