请选择 进入手机版 | 继续访问电脑版

YMLY-影迷乐园-特效字幕 蓝光原盘 1080P 高清动漫电影电视剧

 找回密码
 立即注册
搜索
查看: 112|回复: 15

[大陆] [115][2002][1080P.1080i][雪花女神龙][国语繁中字幕][董璇.任天野][45集全][TS][231.65GB][台湾综合台]

[复制链接]
  • TA的每日心情
    奋斗
    2020-2-21 00:36
  • 签到天数: 656 天

    [LV.9]以坛为家II

    8125

    主题

    1万

    帖子

    6万

    积分

    超级版主

    与齐同行,是最初的梦想,也是一辈子的执着~

    Rank: 16Rank: 16Rank: 16Rank: 16

    积分
    62683

    内测勋章最佳新人十二生肖之猴VIP包月勋章影迷男神小土豪勋章土豪勋章富甲一方精华勋章金话筒主题达人灌水之王

    发表于 6 天前 | 显示全部楼层 |阅读模式


    ◎片  名 雪花女神龙
    ◎年  代 2002
    ◎产  地 中国大陆
    ◎类  别 武侠
    ◎语  言 汉语普通话
    ◎上映日期 
    ◎豆瓣评分 6.8/10 from 11671 users
    ◎豆瓣链接 https://movie.douban.com/subject/2377264/
    ◎集  数 45
    ◎片  长 46分钟
    ◎编  剧 东函 Han Tung
    ◎主  演 董璇 Xuan Dong
           任天野 Tianye Ren
           乔振宇 Zhenyu Qiao
           孙耀威 Eric Suen
           陈孝萱 Vicky Chen
           连凯 Andrew Lin
           张茜 Jess Zhang
           左百学 Baixue Zuo
           齐千郡 Qianjun Qi
           左佰学
           黄笑嬿 Xiaoyan Huang
           陈冠宁 Guanning Chen
           方晓莉 Xiaoli Fang

    ◎标  签 古装 | 乔振宇 | 武侠 | 电视剧 | 国产电视剧 | 董璇 | 看过的电视剧 | 华语标签

    ◎简  介

      公元907年,江湖上群雄争霸,上官云、欧阳飞鹰、皇甫忠与司马逸结拜为兄弟,后因内部争权夺利发生火并,欧阳飞鹰勾结神月教主弑主篡位。八岁的上官燕幸免于难逃了出来,被武林奇侠古木天(左百学 饰)相救,历经十五年的言传身教,上官燕(董璇 饰)成长为江湖上有名的“女神龙”,她手持凤血剑游走江湖寻找母亲。首战遇见的是当年的司马逸之子司马长风(仼晶 饰),他身带龙魂刀,为人亦正亦邪,人送外号“鬼见愁”。天生善良的皇甫仁和(孙耀威 饰)是当年城主皇甫忠的后代,他正是上官燕要找的少主,由于幼年被人收养,当年的血雨腥风已不复记忆。阴险狡诈的欧阳飞鹰得知上官燕与司马长风铸就所向披靡的新一代利剑后,不惜用爱女欧阳盈盈(陈孝萓 饰)做诱饵……
    1. General
    2. ID                             : 1 (0x1)
    3. Format                         : MPEG-TS
    4. File size                      : 5.15 GiB
    5. Duration                       : 47 min 51 s
    6. Overall bit rate               : 15.4 Mb/s

    7. Video
    8. ID                             : 4113 (0x1011)
    9. Menu ID                        : 1 (0x1)
    10. Format                         : AVC
    11. Format/Info                    : Advanced Video Codec
    12. Format profile                 : High@L4
    13. Format settings                : CABAC / 2 Ref Frames
    14. Format settings, CABAC         : Yes
    15. Format settings, Reference fra : 2 frames
    16. Format settings, GOP           : M=3, N=15
    17. Codec ID                       : 27
    18. Duration                       : 47 min 51 s
    19. Bit rate                       : 14.3 Mb/s
    20. Width                          : 1 920 pixels
    21. Height                         : 1 080 pixels
    22. Display aspect ratio           : 16:9
    23. Frame rate                     : 29.970 (30000/1001) FPS
    24. Color space                    : YUV
    25. Chroma subsampling             : 4:2:0
    26. Bit depth                      : 8 bits
    27. Scan type                      : Interlaced
    28. Scan type, store method        : Separated fields
    29. Scan order                     : Top Field First
    30. Bits/(Pixel*Frame)             : 0.229
    31. Stream size                    : 4.77 GiB (93%)

    32. Audio
    33. ID                             : 4352 (0x1100)
    34. Menu ID                        : 1 (0x1)
    35. Format                         : MPEG Audio
    36. Format version                 : Version 1
    37. Format profile                 : Layer 2
    38. Codec ID                       : 3
    39. Duration                       : 47 min 51 s
    40. Bit rate mode                  : Constant
    41. Bit rate                       : 384 kb/s
    42. Channel(s)                     : 2 channels
    43. Sampling rate                  : 48.0 kHz
    44. Frame rate                     : 41.667 FPS (1152 SPF)
    45. Compression mode               : Lossy
    46. Delay relative to video        : -16 ms
    47. Stream size                    : 131 MiB (2%)
    复制代码




    购买主题 已有 1 人购买  本主题需向作者支付 100 大洋 才能浏览
    郑重声明:
    本人提供的所有影视作品均是在网上搜集,任何涉及商业盈利目的均不得使用,否则产生的一切后果将由您自己承担!
    本人不对本人所发布的任何内容负任何法律责任!该下载内容仅做宽带测试使用,请在下载后24小时内删除。请购买正版!
    本人列出的文件没有保存在本站的服务器上,本人仅负责连接,本人对被传播文件的内容一无所知。
    如侵犯视频原作者或发行商版权,请联系本人删除!
    回复

    使用道具 举报

  • TA的每日心情
    开心
    昨天 02:03
  • 签到天数: 94 天

    [LV.6]常住居民II

    3

    主题

    902

    帖子

    265

    积分

    超级影迷

    Rank: 6Rank: 6

    积分
    265

    小土豪勋章

    发表于 5 天前 | 显示全部楼层
    感谢楼主分享!
    回复

    使用道具 举报

  • TA的每日心情
    开心
    昨天 07:43
  • 签到天数: 114 天

    [LV.6]常住居民II

    1

    主题

    1276

    帖子

    229

    积分

    高级影迷

    Rank: 4

    积分
    229
    发表于 5 天前 | 显示全部楼层
    感谢分享!
    回复

    使用道具 举报

  • TA的每日心情
    开心
    昨天 08:16
  • 签到天数: 138 天

    [LV.7]常住居民III

    18

    主题

    1492

    帖子

    162

    积分

    高级影迷

    Rank: 4

    积分
    162
    发表于 5 天前 | 显示全部楼层
    感谢分享,支持一下
    回复

    使用道具 举报

  • TA的每日心情
    开心
    昨天 09:06
  • 签到天数: 40 天

    [LV.5]常住居民I

    0

    主题

    527

    帖子

    32

    积分

    初级影迷

    Rank: 2

    积分
    32
    发表于 5 天前 | 显示全部楼层
    感谢楼主分享!
    回复

    使用道具 举报

  • TA的每日心情
    奋斗
    3 天前
  • 签到天数: 18 天

    [LV.4]偶尔看看III

    20

    主题

    291

    帖子

    168

    积分

    高级影迷

    Rank: 4

    积分
    168
    发表于 5 天前 | 显示全部楼层
    咔咔咔咔咔咔扩扩扩扩扩扩
    回复

    使用道具 举报

  • TA的每日心情
    擦汗
    5 天前
  • 签到天数: 5 天

    [LV.2]偶尔看看I

    1

    主题

    36

    帖子

    4

    积分

    入门影迷

    Rank: 1

    积分
    4
    发表于 5 天前 | 显示全部楼层
    感谢分享!
    回复

    使用道具 举报

  • TA的每日心情

    昨天 09:09
  • 签到天数: 226 天

    [LV.7]常住居民III

    3

    主题

    1187

    帖子

    300

    积分

    超级影迷

    Rank: 6Rank: 6

    积分
    300

    小土豪勋章

    发表于 5 天前 | 显示全部楼层
    感谢分享!
    回复

    使用道具 举报

  • TA的每日心情
    开心
    1 小时前
  • 签到天数: 140 天

    [LV.7]常住居民III

    1

    主题

    1467

    帖子

    288

    积分

    超级影迷

    Rank: 6Rank: 6

    积分
    288
    发表于 5 天前 | 显示全部楼层
    谢谢楼主分享
    回复

    使用道具 举报

  • TA的每日心情
    开心
    前天 09:17
  • 签到天数: 102 天

    [LV.6]常住居民II

    4

    主题

    1020

    帖子

    295

    积分

    超级影迷

    Rank: 6Rank: 6

    积分
    295
    发表于 5 天前 | 显示全部楼层
    感谢分享!
    回复

    使用道具 举报

    您需要登录后才可以回帖 登录 | 立即注册

    本版积分规则

    QQ|Archiver|手机版|小黑屋|影迷乐园

    GMT+8, 2020-11-25 01:57 , Processed in 0.069743 second(s), 28 queries .

    Powered by Discuz! X3.4

    Copyright © 2001-2020, Tencent Cloud.

    快速回复 返回顶部 返回列表