请选择 进入手机版 | 继续访问电脑版

YMLY-影迷乐园-特效字幕 蓝光原盘 1080P 高清动漫电影电视剧

 找回密码
 立即注册
搜索
查看: 95|回复: 14

[美国] [115+百度][2017][1080P][正能小飞马.幻想快乐S01.第一季][人人双语字幕][8集全][MKV][12.68GB][Happy!.S01.2017.BluRay.1080p.MNHD-FRDS]

[复制链接]
  • TA的每日心情
    奋斗
    2020-2-21 00:36
  • 签到天数: 656 天

    [LV.9]以坛为家II

    8185

    主题

    1万

    帖子

    6万

    积分

    超级版主

    与齐同行,是最初的梦想,也是一辈子的执着~

    Rank: 16Rank: 16Rank: 16Rank: 16

    积分
    64083

    内测勋章最佳新人十二生肖之猴VIP包月勋章影迷男神小土豪勋章土豪勋章富甲一方精华勋章金话筒主题达人灌水之王

    发表于 2020-11-21 16:42:44 | 显示全部楼层 |阅读模式
    下载说明:

    百度网盘分享极其不稳定,如有链接失效,请第一时间站内短消息通知我,上线后会第一时间补发!请大家多多谅解!电驴链接只能115会员离线下载,其它工具都下载不了!


    ----转载自FRDS,感谢压制和原发布人员,特此鸣谢!----


    制作说明:

    Source:Happy.S01.1080p.BluRay.REMUX.AVC.DTS-HD.MA.5.1-EPSiLON
    字幕: chs&eng(YYeTs字幕组_ass) 整体提前5.8秒并改为微软雅黑
    Encode:不会数数的压制者




    ◎译  名 幻想快乐 第一季 / 正能小飞马
    ◎片  名 Happy! Season 1
    ◎年  代 2017
    ◎产  地 美国
    ◎类  别 喜剧 / 犯罪 / 奇幻
    ◎语  言 英语
    ◎上映日期 2017-12-06(美国)
    ◎IMDb评分  8.2/10 from 31419 users
    ◎IMDb链接  https://www.imdb.com/title/tt2452242
    ◎豆瓣评分 8.2/10 from 2008 users
    ◎豆瓣链接 https://movie.douban.com/subject/26877392/
    ◎集  数 8
    ◎片  长 40分钟
    ◎导  演 布莱恩·泰勒 Brian Taylor / 韦恩·叶 Wayne Yip / 大卫·彼特拉克 David Petrarca
    ◎编  剧 格兰特·莫里森 Grant Morrison / 布莱恩·泰勒 Brian Taylor / 肯·克里斯滕森 Ken Kristensen / 马修·怀特 Matthew White / 帕特里克·马克曼努斯 Patrick Macmanus / 诺埃尔·瓦尔迪维亚 Noelle Valdivia / 彼得·麦克马纳斯 Peter Macmanus
    ◎主  演 克里斯托弗·米洛尼 Christopher Meloni
           帕顿·奥斯瓦尔特 Patton Oswalt
           莉莉·米罗基尼克 Lili Mirojnick
           布莱丝·洛伦佐 Bryce Lorenzo
           里特奇·科斯特 Ritchie Coster
           Medina Senghore
           约瑟夫·D·雷特曼 Joseph D. Reitman
           派特里克·费斯克勒 Patrick Fischler
           Ren Colley
           凯蒂·贝丝·霍尔 Katie Beth Hall
           亚历山大·詹姆森 Alexander Jameson
           约瑟夫·佩里诺 Joseph Perrino
           扎布丽娜·格瓦拉 Zabryna Guevara
           阿什莉·阿特金森 Ashlie Atkinson
           格斯·哈尔珀 Gus Halper
           克里斯托弗·菲茨杰拉德 Christopher Fitzgerald


    ◎标  签 美剧 | 喜剧 | 奇幻 | 犯罪 | 美国 | cult | Syfy | 看过的电视剧

    ◎简  介  

      Syfy新剧《幻想快乐 Happy!》由Grant Morrison与Darick Robertson的漫画小说改篇,Grant Morrison与Brian Taylor负责编剧及当执行制片,而Brian Taylor亦负责执导。
      Chris Meloni饰演Nick Sax,他曾经是大城警察的一位明星警探,但他失去一切后,现在成了一个破产﹑堕落﹑为黑帮工作的雇佣杀手,他赚的钱不多,仅够他能买醉及毒品。但在一次刺杀出错后,他的生活被一只幻想、正能量的蓝色独角小飞马Happy彻底改变。Joseph Reitman饰演首季的反派,这会是个疯狂而又有妄想症的角色。
    1. General
    2. Unique ID                   : 114361820321120224319077335815858709152 (0x560949119EAF83E858CF9BD58A4862A0)
    3. Complete name               : D:\Happy!.S01.2017.BluRay.1080p.MNHD-FRDS\Happy.S01E01.Saint.Nick.1080p.BluRay.x265.10bit.DDP.5.1.MNHD-FRDS.mkv
    4. Format                      : Matroska
    5. Format version              : Version 4
    6. File size                   : 1.97 GiB
    7. Duration                    : 43 min 55 s
    8. Overall bit rate            : 6 428 kb/s
    9. Encoded date                : UTC 2020-10-31 04:11:26
    10. Writing application         : mkvmerge v51.0.0 ('I Wish') 64-bit
    11. Writing library             : libebml v1.4.0 + libmatroska v1.6.2

    12. Video
    13. ID                          : 1
    14. Format                      : HEVC
    15. Format/Info                 : High Efficiency Video Coding
    16. Format profile              : Main 10@L5.1@High
    17. Codec ID                    : V_MPEGH/ISO/HEVC
    18. Duration                    : 43 min 55 s
    19. Bit rate                    : 5 774 kb/s
    20. Width                       : 1 918 pixels
    21. Height                      : 1 078 pixels
    22. Display aspect ratio        : 16:9
    23. Frame rate mode             : Constant
    24. Frame rate                  : 23.976 (24000/1001) FPS
    25. Color space                 : YUV
    26. Chroma subsampling          : 4:2:0
    27. Bit depth                   : 10 bits
    28. Bits/(Pixel*Frame)          : 0.116
    29. Stream size                 : 1.77 GiB (90%)
    30. Writing library             : x265 3.4+12-g9103319fc:[Windows][MSVC 1927][64 bit] 10bit
    31. Encoding settings           : cpuid=1111039 / frame-threads=4 / numa-pools=16 / wpp / pmode / no-pme / no-psnr / no-ssim / log-level=2 / input-csp=1 / input-res=1918x1078 / interlace=0 / total-frames=63198 / level-idc=0 / high-tier=1 / uhd-bd=0 / ref=4 / no-allow-non-conformance / no-repeat-headers / annexb / no-aud / no-hrd / info / hash=0 / no-temporal-layers / no-open-gop / min-keyint=23 / keyint=250 / gop-lookahead=0 / bframes=10 / b-adapt=2 / b-pyramid / bframe-bias=0 / rc-lookahead=80 / lookahead-slices=0 / scenecut=40 / hist-scenecut=0 / radl=0 / no-splice / no-intra-refresh / ctu=32 / min-cu-size=8 / no-rect / no-amp / max-tu-size=32 / tu-inter-depth=4 / tu-intra-depth=4 / limit-tu=0 / rdoq-level=2 / dynamic-rd=0.00 / no-ssim-rd / signhide / tskip / nr-intra=0 / nr-inter=0 / no-constrained-intra / strong-intra-smoothing / max-merge=5 / limit-refs=0 / no-limit-modes / me=3 / subme=7 / merange=44 / temporal-mvp / no-frame-dup / no-hme / weightp / weightb / no-analyze-src-pics / deblock=-3:-3 / no-sao / no-sao-non-deblock / rd=4 / selective-sao=0 / no-early-skip / no-rskip / no-fast-intra / no-tskip-fast / no-cu-lossless / b-intra / no-splitrd-skip / rdpenalty=0 / psy-rd=1.50 / psy-rdoq=1.00 / no-rd-refine / no-lossless / cbqpoffs=-2 / crqpoffs=-2 / rc=crf / crf=22.0 / qcomp=0.65 / qpstep=4 / stats-write=0 / stats-read=0 / vbv-maxrate=160000 / vbv-bufsize=160000 / vbv-init=0.9 / crf-max=0.0 / crf-min=0.0 / ipratio=1.30 / pbratio=1.20 / aq-mode=2 / aq-strength=0.90 / no-cutree / zone-count=0 / no-strict-cbr / qg-size=8 / no-rc-grain / qpmax=69 / qpmin=0 / no-const-vbv / sar=0 / overscan=0 / videoformat=5 / range=0 / colorprim=1 / transfer=1 / colormatrix=1 / chromaloc=0 / display-window=0 / cll=0,0 / min-luma=0 / max-luma=1023 / log2-max-poc-lsb=8 / vui-timing-info / vui-hrd-info / slices=1 / no-opt-qp-pps / no-opt-ref-list-length-pps / no-multi-pass-opt-rps / scenecut-bias=0.05 / hist-threshold=0.01 / no-opt-cu-delta-qp / no-aq-motion / no-hdr10 / no-hdr10-opt / no-dhdr10-opt / no-idr-recovery-sei / analysis-reuse-level=0 / analysis-save-reuse-level=0 / analysis-load-reuse-level=0 / scale-factor=0 / refine-intra=0 / refine-inter=0 / refine-mv=1 / refine-ctu-distortion=0 / no-limit-sao / ctu-info=0 / no-lowpass-dct / refine-analysis-type=0 / copy-pic=1 / max-ausize-factor=1.0 / no-dynamic-refine / no-single-sei / no-hevc-aq / no-svt / no-field / qp-adaptation-range=1.00 / no-scenecut-aware-qpconformance-window-offsets / right=0 / bottom=0 / decoder-max-rate=0
    32. Default                     : Yes
    33. Forced                      : No
    34. Color range                 : Limited
    35. Color primaries             : BT.709
    36. Transfer characteristics    : BT.709
    37. Matrix coefficients         : BT.709

    38. Audio
    39. ID                          : 2
    40. Format                      : E-AC-3
    41. Format/Info                 : Enhanced AC-3
    42. Commercial name             : Dolby Digital Plus
    43. Codec ID                    : A_EAC3
    44. Duration                    : 43 min 54 s
    45. Bit rate mode               : Constant
    46. Bit rate                    : 640 kb/s
    47. Channel(s)                  : 6 channels
    48. Channel layout              : L R C LFE Ls Rs
    49. Sampling rate               : 48.0 kHz
    50. Frame rate                  : 31.250 FPS (1536 SPF)
    51. Compression mode            : Lossy
    52. Stream size                 : 201 MiB (10%)
    53. Language                    : English
    54. Service kind                : Complete Main
    55. Default                     : Yes
    56. Forced                      : No

    57. Text #1
    58. ID                          : 3
    59. Format                      : ASS
    60. Codec ID                    : S_TEXT/ASS
    61. Codec ID/Info               : Advanced Sub Station Alpha
    62. Duration                    : 43 min 28 s
    63. Bit rate                    : 319 b/s
    64. Count of elements           : 754
    65. Compression mode            : Lossless
    66. Stream size                 : 102 KiB (0%)
    67. Title                       : chs&eng(YYeTs字幕组_ass)
    68. Language                    : Chinese
    69. Default                     : Yes
    70. Forced                      : No

    71. Text #2
    72. ID                          : 4
    73. Format                      : PGS
    74. Muxing mode                 : zlib
    75. Codec ID                    : S_HDMV/PGS
    76. Codec ID/Info               : Picture based subtitle format used on BDs/HD-DVDs
    77. Duration                    : 43 min 12 s
    78. Bit rate                    : 30.7 kb/s
    79. Count of elements           : 1116
    80. Stream size                 : 9.48 MiB (0%)
    81. Language                    : French
    82. Default                     : No
    83. Forced                      : No

    84. Menu
    85. 00:00:00.000                : :Chapter 1
    86. 00:06:00.360                : :Chapter 2
    87. 00:16:04.797                : :Chapter 3
    88. 00:22:13.123                : :Chapter 4
    89. 00:41:45.294                : :Chapter 5
    复制代码


    截图仅为给大家知道字幕的样式,并非电影的画质。



    购买主题 已有 3 人购买  本主题需向作者支付 20 大洋 才能浏览
    郑重声明:
    本人提供的所有影视作品均是在网上搜集,任何涉及商业盈利目的均不得使用,否则产生的一切后果将由您自己承担!
    本人不对本人所发布的任何内容负任何法律责任!该下载内容仅做宽带测试使用,请在下载后24小时内删除。请购买正版!
    本人列出的文件没有保存在本站的服务器上,本人仅负责连接,本人对被传播文件的内容一无所知。
    如侵犯视频原作者或发行商版权,请联系本人删除!
    回复

    使用道具 举报

  • TA的每日心情
    开心
    3 小时前
  • 签到天数: 102 天

    [LV.6]常住居民II

    0

    主题

    220

    帖子

    34

    积分

    初级影迷

    Rank: 2

    积分
    34
    发表于 2020-11-21 17:08:31 | 显示全部楼层
    感谢楼主分享!
    回复

    使用道具 举报

  • TA的每日心情
    慵懒
    昨天 08:35
  • 签到天数: 174 天

    [LV.7]常住居民III

    4

    主题

    1070

    帖子

    94

    积分

    中级影迷

    Rank: 3Rank: 3

    积分
    94
    发表于 2020-11-21 19:00:15 | 显示全部楼层
    谢谢分享!
    回复

    使用道具 举报

  • TA的每日心情
    开心
    4 小时前
  • 签到天数: 318 天

    [LV.8]以坛为家I

    60

    主题

    1242

    帖子

    178

    积分

    高级影迷

    Rank: 4

    积分
    178
    发表于 2020-11-21 19:31:30 | 显示全部楼层
    感谢分享好剧
    回复

    使用道具 举报

  • TA的每日心情
    慵懒
    昨天 01:36
  • 签到天数: 85 天

    [LV.6]常住居民II

    1

    主题

    1211

    帖子

    92

    积分

    中级影迷

    Rank: 3Rank: 3

    积分
    92
    发表于 2020-11-21 20:38:02 | 显示全部楼层
    感谢楼主分享!
    回复

    使用道具 举报

  • TA的每日心情
    开心
    1 小时前
  • 签到天数: 146 天

    [LV.7]常住居民III

    1

    主题

    1528

    帖子

    299

    积分

    超级影迷

    Rank: 6Rank: 6

    积分
    299
    发表于 2020-11-21 22:31:59 | 显示全部楼层
    谢谢楼主分享
    回复

    使用道具 举报

  • TA的每日心情
    开心
    4 天前
  • 签到天数: 104 天

    [LV.6]常住居民II

    4

    主题

    1042

    帖子

    299

    积分

    超级影迷

    Rank: 6Rank: 6

    积分
    299
    发表于 2020-11-21 23:55:03 | 显示全部楼层
    感谢分享!
    回复

    使用道具 举报

  • TA的每日心情
    开心
    3 小时前
  • 签到天数: 101 天

    [LV.6]常住居民II

    3

    主题

    975

    帖子

    288

    积分

    超级影迷

    Rank: 6Rank: 6

    积分
    288

    小土豪勋章

    发表于 2020-11-22 07:55:17 | 显示全部楼层
    感谢分享!
    回复

    使用道具 举报

  • TA的每日心情
    开心
    昨天 21:13
  • 签到天数: 144 天

    [LV.7]常住居民III

    18

    主题

    1550

    帖子

    174

    积分

    高级影迷

    Rank: 4

    积分
    174
    发表于 2020-11-22 11:09:30 | 显示全部楼层
    感谢分享,支持一下
    回复

    使用道具 举报

  • TA的每日心情
    开心
    1 小时前
  • 签到天数: 146 天

    [LV.7]常住居民III

    1

    主题

    1528

    帖子

    299

    积分

    超级影迷

    Rank: 6Rank: 6

    积分
    299
    发表于 2020-11-22 11:37:28 | 显示全部楼层
    谢谢楼主分享
    回复

    使用道具 举报

    您需要登录后才可以回帖 登录 | 立即注册

    本版积分规则

    QQ|Archiver|手机版|小黑屋|影迷乐园

    GMT+8, 2020-12-1 04:28 , Processed in 0.068223 second(s), 28 queries .

    Powered by Discuz! X3.4

    Copyright © 2001-2020, Tencent Cloud.

    快速回复 返回顶部 返回列表